img image001 image001 image001 image001 image001 image001 image001 image001 image001 image001 image001 image001 image001 image001 image001

Planets Sun Sun Sun
Статистика раздачи
Автор: Nickolas3434 | Размер: 16.02 ГБ | Добавлен: 29 сен 2015
Раздают: 75    Качают: 32
Скачать торрент
Скачать торрент
Описание торрента

СообщениеДобавлено: 29 сен 2015 


Информация о фильме
Название: Хождение по мукам
Год выхода: 1977
Жанр: Драма, история
Режиссер: Василий Ордынский
В ролях: Светлана Пенкина, Ирина Алферова, Юрий Соломин, Михаил Ножкин, Вячеслав Езепов, Михаил Козаков, Инна Гулая, Александр Лазарев ст., Сергей Никоненко, Георгий Бурков, Семён Морозов, Ролан Быков, Анна Каменкова, Евгений Лазарев, Зиновий Гердт, Светлана Тормахова, Вера Комиссарова, Владимир Богин, Виталий Безруков, Юрий Николаев, Николай Сморчков, Юрий Горобец, Валерий Еремичев, Валерий Погорельцев, Андрей Юренев, Александр Пашутин, Лаймонас Норейка, Владимир Комратов, Николай Ерёменко мл., Роман Хомятов, Пётр Любешкин, Лев Дуров, Виктор Борцов, Любовь Чиркова, Константин Григорьев, Алексей Крыченков, Юрий Каюров, Владимир Гостюхин, Татьяна Распутина, Евгений Казаков
О фильме: Многосерийный художественный фильм по роману русского советского писателя Алексея Толстого. Кинолента повествует о жизни двух сестер Булавиных (Дарьи и Катерины) и их спутников в годы Первой мировой войны (28 июля 1914 — 11 ноября 1918) и Гражданской войны (1917—1922/1923). Петербург 1914 года. Героини фильма — сестры Катя и Даша Булавины. Старшая, Катя, жена либерального адвоката Смоковникова, уже долгое время живет в тоске и отчаянии от пустоты собственной жизни, от чего ее спасает офицер русской армии Вадим Рощин. Даша посещает кружок поэтов-декадентов, затем уезжает в Самару и на пароходе встречает своего давнего петербургского знакомого Ивана Телегина. Наступает восемнадцатый год. Катя и и Рощин едут на юг, в Ростов. Здесь Рощин встречает старого знакомого, корниловского офицера. Горячие споры о судьбах русского народа приводят к разрыву отношений между Катей и Рощиным. Даша и Телегин тоже расстаются, и Иван записывается в Красную Армию. При обороне Царицына Иван Телегин получит ранение, его направят в госпиталь, где он встретит Дашу. Рощин дезертирует с фронта и будет направлен на поиски Кати. После долгих и мучительных скитаний все четверо встретятся в Москве...
Страна: СССР, Мосфильм
Продолжительность: 13 х ~ 01:10:01
Перевод: не требуется
Файл
Кодек: x264
Качество: DVDRip-AVC
Видео: MPEG-4 AVC, ~ 2250 Кбит/с, 710x572@758x572
Звук: AC3, 2 ch, 224 Кбит/с
Видео сравнения с исходником: http://sendfile.su/1158689, http://sendfile.su/1158687


raw [info]: 710x572p 16:15 @ 25/1 fps (cfr)
x264 [info]: using SAR=16/15
x264 [info]: using cpu capabilities: MMX2 SSE2Fast SSSE3 SSE4.2 AVX
x264 [info]: profile High, level 4.1
x264 [info]: frame I:628 Avg QP:14.34 size: 81714
x264 [info]: frame P:31341 Avg QP:17.81 size: 29757
x264 [info]: frame B:86912 Avg QP:20.74 size: 5435
===========================================================================================================
Общее
Уникальный идентификатор : 244117338007793966447563433541305555995 (0xB7A74A03DB05848C97571805FC6ADC1B)
Полное имя : R:МОИ РИПЫХождение по мукам_1974-77-SATRip-AVCМуки-1.mkv
Формат : Matroska
Версия формата : Version 2
Размер файла : 1,48 Гбайт
Продолжительность : 1 ч. 19 м.
Общий поток : 2676 Кбит/сек
Дата кодирования : UTC 2015-09-26 23:27:07
Программа кодирования : mkvmerge v5.8.0 ('No Sleep / Pillow') built on Sep 2 2012 15:37:04
Библиотека кодирования : libebml v1.2.3 + libmatroska v1.3.0
Видео
Идентификатор : 1
Формат : AVC
Формат/Информация : Advanced Video Codec
Профиль формата : High@L4.1
Параметр CABAC формата : Да
Параметр ReFrames формата : 15 кадров
Идентификатор кодека : V_MPEG4/ISO/AVC
Продолжительность : 1 ч. 19 м.
Битрейт : 2450 Кбит/сек
Ширина : 710 пикселей
Высота : 572 пикселя
Соотношение сторон : 4:3
Соотношение сторон в оригинале : 4:3
Режим частоты кадров : Постоянный
Частота кадров : 25,000 кадров/сек
Цветовое пространство : YUV
Субдискретизация насыщенности : 4:2:0
Битовая глубина : 8 бит
Тип развёртки : Прогрессивная
Бит/(Пиксели*Кадры) : 0.241
Размер потока : 1,33 Гбайт (90%)
Библиотека кодирования : x264 core 146 r2538 121396c
Настройки программы : cabac=1 / ref=15 / deblock=1:-2:-2 / analyse=0x3:0x133 / me=umh / subme=10 / psy=1 / psy_rd=1.05:0.13 / mixed_ref=1 / me_range=32 / chroma_me=1 / trellis=2 / 8x8dct=1 / cqm=0 / deadzone=21,11 / fast_pskip=0 / chroma_qp_offset=-3 / threads=12 / lookahead_threads=2 / sliced_threads=0 / nr=0 / decimate=0 / interlaced=0 / bluray_compat=0 / constrained_intra=0 / bframes=8 / b_pyramid=2 / b_adapt=2 / b_bias=0 / direct=3 / weightb=1 / open_gop=0 / weightp=2 / keyint=250 / keyint_min=25 / scenecut=40 / intra_refresh=0 / rc=2pass / mbtree=0 / bitrate=2450 / ratetol=1.0 / qcomp=0.65 / qpmin=0 / qpmax=39 / qpstep=4 / cplxblur=20.0 / qblur=0.5 / ip_ratio=1.40 / pb_ratio=1.30 / aq=1:1.00
Язык : English
Default : Да
Forced : Нет
Цветовой диапазон : Limited
Основные цвета : BT.601 PAL
Характеристики трансфера : BT.470 System B, BT.470 System G
Коэффициенты матрицы : BT.601
Аудио
Идентификатор : 2
Формат : AC-3
Формат/Информация : Audio Coding 3
Расширение режима : CM (complete main)
Параметр Endianness формата : Big
Идентификатор кодека : A_AC3
Продолжительность : 1 ч. 19 м.
Вид битрейта : Постоянный
Битрейт : 224 Кбит/сек
Каналы : 2 канала
Расположение каналов : Front: L R
Частота : 48,0 КГц
Битовая глубина : 16 бит
Метод сжатия : С потерями
Задержка видео : 150 мс.
Размер потока : 127 Мбайт (8%)
Язык : Russian
Default : Да
Forced : Нет

Релиз от:
Автор релиза:



   Похожие торренты   Торрент   Размер 
В этой теме нет новых непрочитанных сообщений. Хождение по мукам [01-13 из 13] (1977) SATRip-AVC

99 | 38

17.86 ГБ

В этой теме нет новых непрочитанных сообщений. Хождение по мукам [13 серий] (1977) DVDRip

652 | 186

8.9 ГБ

В этой теме нет новых непрочитанных сообщений. Хождение по мукам. Трилогия. (1957-1959) DVDRip-AVC от ExKinoRay

171 | 17

4.23 ГБ

В этой теме нет новых непрочитанных сообщений. Хождение по мукам. Трилогия (Сестры. Восемнадцатый год. Хмурое утро) (1957-1959) SATRip

73 | 12

4.01 ГБ

В этой теме нет новых непрочитанных сообщений. Хождение по мукам. Восемнадцатый год (1958) DVDRip от KinoZalSat

6 | 3

1.36 ГБ

В этой теме нет новых непрочитанных сообщений. Хождение по мукам. Сёстры (1957) DVDRip от KinoZalSat

10 | 8

1.36 ГБ

В этой теме нет новых непрочитанных сообщений. Толстая Наталья - Любимая или любовница. Хождение по мукам (2009) RTF, FB2, PDF, DOC

50 | 93

14.61 МБ




Вы не можете начинать темы
Вы не можете отвечать на сообщения
Вы не можете редактировать свои сообщения
Вы не можете удалять свои сообщения
Вы не можете добавлять вложения

Перейти:  
Для Мосгорсуда, Роскомнадзора и рекламодателей: mosgorsud-torrent[собачка]yandex.ru
 Вход
ppkBB3cker v.2 © 2008-2014 @ PPK
[ Time : 3.269s | 15 Queries | GZIP : Off ]

Торрент трекер RUTOR.IN, Не можете зайти на rutor.org? Какой новый адрес рутор? Какое зеркало рутор? Не работает rutor.org и зеркала? Тогда наш торрент специально для вас. Rutor.in неофициальное зеркало rutor. В случае если у Вас заблокирован rutor или вдруг Вы не можете на него зайти, то Вы без труда сможете скачать бесплатно и без рекламы последние новинки кино, игр, сериалов и прочего у нас, на Rutor.in. Не нужно использовать прокси, чтобы зайти на рутор, достаточно воспользоваться нашим ресурсом. Все новые фильмы, игры, сериалы, книги и музыка за 2013 и 2014 годы через торрент бесплатно. Скачивайте фильмы в хорошем качестве, игры для пк, xbox, playstation без регистрации. У нас вы найдете новые Зарубежные сериалы и Русские сериалы 2013, 2014, 2015 годов. Оставайтесь с нами, качайте любимые фильмы, игры, сериалы, книги и музыку.