img image001 image001 image001 image001 image001 image001 image001 image001 image001 image001 image001 image001 image001 image001 image001

Planets Sun Sun Sun
Статистика раздачи
Автор: Nickolas3434 | Размер: 4.36 ГБ | Добавлен: 30 сен 2015
Раздают: 258    Качают: 111
Скачать торрент
Скачать торрент
Описание торрента

СообщениеДобавлено: 30 сен 2015 


Информация о фильме
Название: Джуна
Год выхода: 2015
Жанр: Мистика, биография, драма
Режиссер: Вадим Островский
В ролях: Лаура Кеосаян, Рамиля Искандер, Кирилл Кяро, Надежда Иванко, Виктория Маслова, Аполлинария Дашковская, Александр Голобородько, Владимир Горюшин, Арсений Перель
О фильме:
Главный герой картины, целительница Джуна славилась своей подкупающей искренностью и огромной самоотверженной увлеченностью во всем, что бы она ни делала. Сложно найти еще одного человека, в биографии которого мифы и реальность переплетались так часто, как у нее. По всевозможным легендам ее пациентами являлись Леонид Брежнев, Папа Римский Иоанн Павел II, Роберт де Ниро, Андрей Тарковский и Федерико Фелини. Помимо лечения, она еще предсказывала будущее: в своё время она предрекала распад Советского Союза и катастрофу на Чернобыльской АЭС.
Страна: Россия
Студия: Дуэт Продакшн
Продолжительность: 12 x ~ 00:50:00
Перевод: Не требуется
Файл
Кодек: XviD
Качество: WEB-DLRip
Видео: XviD, ~ 940 Кбит/с, 704x400, 25 кадр/с
Звук: MP3, 2 ch, 128 Кбит/с
Общее
Полное имя : D:TempDzhuna.(12.seriy.iz.12).2015.WEB-DLRip.by.GeneralFilm\01.seriya.avi
Формат : AVI
Формат/Информация : Audio Video Interleave
Размер файла : 372 Мбайт
Продолжительность : 48 м.
Общий поток : 1062 Кбит/сек
Программа кодирования : VirtualDubMod 1.5.10.3 | www.virtualdub-fr.org || (build 2550/release)
Библиотека кодирования : VirtualDubMod build 2550/release
Видео
Идентификатор : 0
Формат : MPEG-4 Visual
Профиль формата : Advanced Simple@L5
Параметр BVOP формата : 1
Параметр QPel формата : Нет
Параметр GMC формата : Без точки перехода
Параметр матрицы формата : Выборочная
Идентификатор кодека : XVID
Идентификатор кодека/Подсказка : XviD
Продолжительность : 48 м.
Битрейт : 925 Кбит/сек
Ширина : 704 пикселя
Высота : 400 пикселей
Соотношение сторон : 16:9
Частота кадров : 25,000 кадров/сек
Цветовое пространство : YUV
Субдискретизация насыщенности : 4:2:0
Битовая глубина : 8 бит
Тип развёртки : Прогрессивная
Метод сжатия : С потерями
Бит/(Пиксели*Кадры) : 0.131
Размер потока : 324 Мбайт (87%)
Библиотека кодирования : XviD 73
Аудио
Идентификатор : 1
Формат : MPEG Audio
Версия формата : Version 1
Профиль формата : Layer 3
Идентификатор кодека : 55
Идентификатор кодека/Подсказка : MP3
Продолжительность : 48 м.
Вид битрейта : Постоянный
Битрейт : 128 Кбит/сек
Каналы : 2 канала
Частота : 48,0 КГц
Метод сжатия : С потерями
Размер потока : 44,8 Мбайт (12%)
Выравнивание : Соединение по промежуткам
Продолжительность промежутка : 40 мс. (1,00 видеокадр)
Время предзагрузки промежутка : 504 мс.
Библиотека кодирования : LAME3.99r
Настройки программы : -m s -V 4 -q 0 -lowpass 17 -b 128










Релиз от:



   Похожие торренты   Торрент   Размер 
В этой теме нет новых непрочитанных сообщений. Провидица (Джуна) [01-02 из 12] (2015) HDTVRip от GeneralFilm

307 | 138

4.28 ГБ

В этой теме нет новых непрочитанных сообщений. Провидица (Джуна) [01-02 из 12] (2015) HDTVRip от GeneralFilm

263 | 20

1.44 ГБ

В этой теме нет новых непрочитанных сообщений. Провидица (Джуна) [01-02 из 12] (2015) HDTV 1080i от GeneralFilm

76 | 82

18.22 ГБ

В этой теме нет новых непрочитанных сообщений. Провидица (Джуна) [01-02 из 12] (2015) HDTV 1080i от GeneralFilm

83 | 22

5.96 ГБ

В этой теме нет новых непрочитанных сообщений. Джуна [01-12 из 12] (2015) WEB-DLRip от ExKinoRay

974 | 625

8.19 ГБ

В этой теме нет новых непрочитанных сообщений. Джуна [01-12 из 12] (2015) WEB-DLRip от MediaClub | КПК

194 | 76

2.58 ГБ

В этой теме нет новых непрочитанных сообщений. Джуна [01-02 из 12] (2015) HDTVRip-AVC от Files-x

38 | 0

1.58 ГБ




Вы не можете начинать темы
Вы не можете отвечать на сообщения
Вы не можете редактировать свои сообщения
Вы не можете удалять свои сообщения
Вы не можете добавлять вложения

Перейти:  
Для Мосгорсуда, Роскомнадзора и рекламодателей: mosgorsud-torrent[собачка]yandex.ru
 Вход
ppkBB3cker v.2 © 2008-2014 @ PPK
[ Time : 0.098s | 14 Queries | GZIP : Off ]

Торрент трекер RUTOR.IN, Не можете зайти на rutor.org? Какой новый адрес рутор? Какое зеркало рутор? Не работает rutor.org и зеркала? Тогда наш торрент специально для вас. Rutor.in неофициальное зеркало rutor. В случае если у Вас заблокирован rutor или вдруг Вы не можете на него зайти, то Вы без труда сможете скачать бесплатно и без рекламы последние новинки кино, игр, сериалов и прочего у нас, на Rutor.in. Не нужно использовать прокси, чтобы зайти на рутор, достаточно воспользоваться нашим ресурсом. Все новые фильмы, игры, сериалы, книги и музыка за 2013 и 2014 годы через торрент бесплатно. Скачивайте фильмы в хорошем качестве, игры для пк, xbox, playstation без регистрации. У нас вы найдете новые Зарубежные сериалы и Русские сериалы 2013, 2014, 2015 годов. Оставайтесь с нами, качайте любимые фильмы, игры, сериалы, книги и музыку.