img image001 image001 image001 image001 image001 image001 image001 image001 image001 image001 image001 image001 image001 image001 image001

Planets Sun Sun Sun
Статистика раздачи
Автор: Nickolas3434 | Размер: 2.27 ГБ | Добавлен: 30 сен 2015
Раздают: 55    Качают: 23
Скачать торрент
Скачать торрент
Описание торрента

СообщениеДобавлено: 30 сен 2015 


Информация о фильме
Название: Синдбад
Оригинальное название: Sinbad
Год выхода: 2012
Жанр: Фэнтези, боевик, приключения
Режиссер: Энди Уилсон, Колин Тига, Брайан Грант
В ролях: Эллиот Найт, Марама Корлетт, Эллиот Кауэн, Эстелла Дэниелс, Юникс Инокян, Шэйн Леонидас, Нэвин Эндрюс, Йигал Наор, Джанет Сузман, Таппенс Мидлтон
О фильме:
Сбежавший из родного города Басра, проклятый собственной бабушкой за неосторожные действия, приведшие к смерти его любимого брата, Синдбад оказывается в открытом море на корабле "Провиденье" вместе с целым рядом колоритных персонажей. Пережив неистовый магический шторм, Синдбад и его товарищи по плаванию вынуждены сплотиться перед лицом своих внутренних демонов, надежд, привязанностей и страхов. Синдбаду предстоят героические странствия, чтобы снять с себя проклятье и принять свою судьбу.

01. Пилотная серия / Pilot
02. Королева воров / Queen of the Water-Thieves
03. Игорный дом / House of Games
04. Старец моря / Old Man of the Sea
05. Преследуемые / Hunted
06. Сирена / The Siren
07. Возвращение домой / Homecoming
08. Куджи / Kuji
09. Глаз тигра / Eye of the Tiger
10. Для кого бьётся яйцо / For Whom the Egg Shatters
11. Злодей или друг? / Fiend or Friend?
12. Земля мёртвых / Land of the Dead

Страна: Великобритания
Студия: Impossible Pictures
Продолжительность: 12 x ~ 00:43:00
Перевод: Дублированный [TB3]
Файл
Формат: MP4
Качество: HDRip | КПК
Видео: MPEG-4 AVC (x264), 640x360, ~500 kbps, 25.000 fps
Аудио: AAC LC, 48.0 KHz, 2 ch, 128 Kbps
Субтитры: Нет
Семпл

Complete name : E:KinoSindbad.S01.2012.AVC.HDRip.KPK.TB3.GeneralfilmSindbad.s01e03.2012.AVC.HDRip.KPK.TB3.Generalfilm.mp4
Format : MPEG-4
Codec ID : M4V
File size : 194 MiB
Duration : 42mn 45s
Overall bit rate mode : Variable
Overall bit rate : 634 Kbps
Writing application : Lavf53.19.0
Video
ID : 1
Format : AVC
Format/Info : Advanced Video Codec
Format profile : High@L4.1
Format settings, CABAC : Yes
Format settings, ReFrames : 8 frames
Codec ID : avc1
Codec ID/Info : Advanced Video Coding
Duration : 42mn 45s
Bit rate : 500 Kbps
Width : 640 pixels
Height : 360 pixels
Display aspect ratio : 16:9
Frame rate mode : Constant
Frame rate : 25.000 fps
Color space : YUV
Chroma subsampling : 4:2:0
Bit depth : 8 bits
Scan type : Progressive
Bits/(Pixel*Frame) : 0.087
Stream size : 153 MiB (79%)
Writing library : x264 core 130 r2273 b3065e6
Encoding settings : cabac=1 / ref=8 / deblock=1:-1:-1 / analyse=0x3:0x133 / me=umh / subme=10 / psy=1 / psy_rd=1.00:0.00 / mixed_ref=1 / me_range=24 / chroma_me=1 / trellis=2 / 8x8dct=1 / cqm=0 / deadzone=21,11 / fast_pskip=1 / chroma_qp_offset=-2 / threads=3 / lookahead_threads=1 / sliced_threads=0 / nr=0 / decimate=1 / interlaced=0 / bluray_compat=0 / constrained_intra=0 / bframes=8 / b_pyramid=2 / b_adapt=2 / b_bias=0 / direct=3 / weightb=1 / open_gop=0 / weightp=2 / keyint=250 / keyint_min=126 / scenecut=40 / intra_refresh=0 / rc_lookahead=40 / rc=2pass / mbtree=1 / bitrate=500 / ratetol=1.0 / qcomp=0.60 / qpmin=0 / qpmax=69 / qpstep=4 / cplxblur=20.0 / qblur=0.5 / ip_ratio=1.40 / aq=1:1.00
Audio
ID : 2
Format : AAC
Format/Info : Advanced Audio Codec
Format profile : LC
Codec ID : 40
Duration : 42mn 45s
Bit rate mode : Variable
Bit rate : 128 Kbps
Channel(s) : 2 channels
Channel positions : Front: L R
Sampling rate : 48.0 KHz
Compression mode : Lossy
Stream size : 39.1 MiB (20%)

Релиз от:



   Похожие торренты   Торрент   Размер 
В этой теме нет новых непрочитанных сообщений. Синдбад и Минотавр / Sinbad and the Minotaur (2010) HDRip

3 | 2

715.13 МБ

В этой теме нет новых непрочитанных сообщений. Синдбад и Минотавр / Sinbad and the Minotaur (2011) HDRip от Youtracker | P

14 | 2

747 МБ

В этой теме нет новых непрочитанных сообщений. Синдбад и Минотавр / Sinbad and the Minotaur (2011) HDRip | Лицензия

10 | 4

1.36 ГБ

В этой теме нет новых непрочитанных сообщений. Синдбад и Минотавр / Sinbad and the Minotaur (2011) HDRip-AVC от Youtracker | P

85 | 12

2.18 ГБ

В этой теме нет новых непрочитанных сообщений. Синдбад и война с фуриями / Sinbad and the War of the Furies (2016) HDRip | L

727 | 43

1.37 ГБ

В этой теме нет новых непрочитанных сообщений. Синбад (Синдбад) / Sinbad [01x01-12 из 12] (2012) WEB-DLRip-AVC от Тorrent-Хzona

100 | 17

7.36 ГБ

В этой теме нет новых непрочитанных сообщений. Синдбад и Минотавр / Sinbad and the Minotaur (2011) BDRip 720p

0 | 1

4.47 ГБ




Вы не можете начинать темы
Вы не можете отвечать на сообщения
Вы не можете редактировать свои сообщения
Вы не можете удалять свои сообщения
Вы не можете добавлять вложения

Перейти:  
Для Мосгорсуда, Роскомнадзора и рекламодателей: mosgorsud-torrent[собачка]yandex.ru
 Вход
ppkBB3cker v.2 © 2008-2014 @ PPK
[ Time : 2.761s | 14 Queries | GZIP : Off ]

Торрент трекер RUTOR.IN, Не можете зайти на rutor.org? Какой новый адрес рутор? Какое зеркало рутор? Не работает rutor.org и зеркала? Тогда наш торрент специально для вас. Rutor.in неофициальное зеркало rutor. В случае если у Вас заблокирован rutor или вдруг Вы не можете на него зайти, то Вы без труда сможете скачать бесплатно и без рекламы последние новинки кино, игр, сериалов и прочего у нас, на Rutor.in. Не нужно использовать прокси, чтобы зайти на рутор, достаточно воспользоваться нашим ресурсом. Все новые фильмы, игры, сериалы, книги и музыка за 2013 и 2014 годы через торрент бесплатно. Скачивайте фильмы в хорошем качестве, игры для пк, xbox, playstation без регистрации. У нас вы найдете новые Зарубежные сериалы и Русские сериалы 2013, 2014, 2015 годов. Оставайтесь с нами, качайте любимые фильмы, игры, сериалы, книги и музыку.