img image001 image001 image001 image001 image001 image001 image001 image001 image001 image001 image001 image001 image001 image001 image001

Planets Sun Sun Sun
Статистика раздачи
Автор: Nickolas3434 | Размер: 2.26 ГБ | Добавлен: 30 сен 2015
Раздают: 37    Качают: 21
Скачать торрент
Скачать торрент
Описание торрента

СообщениеДобавлено: 30 сен 2015 


Информация о фильме
Название: Камелот
Оригинальное название: Camelot
Год выхода: 2011
Жанр: Фэнтези, драма, исторический
Режиссер: Киаран Доннелли, Джереми Подесва, Стефан Шварц, Микаэл Саломон, Мишель Максвелл МакЛарен
В ролях: Джейми Кэмпбелл Бауэр, Джозеф Файнс, Ева Грин, Тэмзин Эджертон, Питер Муни, Клайв Стэнден, Клер Форлани, Шинейд Кьюсак, Себастьян Кох, Филип Уинчестер, Джеймс Пьюрфой
О фильме:
После внезапной смерти короля Утера, хаос грозит поглотить Великобританию. Волшебник Мерлин видит видение с темным будущим, он берется за молодого и стремительного Артура, неизвестного сына Утера и его наследника, который рос как простолюдин. Но холодная и амбициозная сводная сестра Артура Моргана, будет сражаться с ним до самого конца, вызывая неестественные силы, что бы претендовать на корону в этой эпической битве за власть. В эти темные времена действительно нужен новый король, Гвиневра, супруга Артура, будет ярким светом в суровом мире Артура. Столкнувшись с глубокими моральными решениями, и задачей объединения царства, которое сломано войной и погруженное в обман, Артур пройдет путь за гранью воображения.

01. Возвращение домой / Homecoming
02. Корона и меч / The Sword and the Crown
03. Гвиневра / Guinevere
04. Озерная дама / Lady of the Lake
05. Судья / Justice
06. Три дороги / Three Journeys
07. Долгая ночь / The Long Night
08. Игрейн / Igraine
09. Битва за перевал / The Battle of Bardon Pass
10. Расплата / Reckoning

Страна: США, Канада, Великобритания, Ирландия
Студия: Canadian Broadcasting Corporation (CBC), Starz Originals, Starz Entertainment Group
Продолжительность: 10 x ~ 00:50:00
Перевод: Профессиональный (многоголосый, закадровый) [AlexFilm]
Файл
Формат: MP4
Качество: HDRip | КПК
Видео: MPEG-4 AVC (x264), 640x360, ~500 kbps, 23.976 fps
Аудио: AAC LC, 48.0 KHz, 2 ch, 128 Kbps
Субтитры: Нет
Семпл

Complete name : E:KinoKamelot.S01.2011.AVC.HDRip.KPK.AF.GeneralfilmKamelot.s01e06.2011.AVC.HDRip.KPK.AF.Generalfilm.mp4
Format : MPEG-4
Codec ID : M4V
File size : 228 MiB
Duration : 50mn 16s
Overall bit rate mode : Variable
Overall bit rate : 634 Kbps
Writing application : Lavf53.19.0
Video
ID : 1
Format : AVC
Format/Info : Advanced Video Codec
Format profile : High@L4.1
Format settings, CABAC : Yes
Format settings, ReFrames : 8 frames
Codec ID : avc1
Codec ID/Info : Advanced Video Coding
Duration : 50mn 15s
Source duration : 21mn 37s
Bit rate : 500 Kbps
Width : 640 pixels
Height : 360 pixels
Display aspect ratio : 16:9
Frame rate mode : Constant
Frame rate : 23.976 fps
Color space : YUV
Chroma subsampling : 4:2:0
Bit depth : 8 bits
Scan type : Progressive
Bits/(Pixel*Frame) : 0.091
Stream size : 180 MiB (79%)
Source stream size : 180 MiB (79%)
Writing library : x264 core 130 r2273 b3065e6
Encoding settings : cabac=1 / ref=8 / deblock=1:-2:-2 / analyse=0x3:0x133 / me=umh / subme=10 / psy=1 / psy_rd=1.00:0.00 / mixed_ref=1 / me_range=24 / chroma_me=1 / trellis=2 / 8x8dct=1 / cqm=0 / deadzone=21,11 / fast_pskip=1 / chroma_qp_offset=-2 / threads=12 / lookahead_threads=2 / sliced_threads=0 / nr=0 / decimate=0 / interlaced=0 / bluray_compat=0 / constrained_intra=0 / bframes=8 / b_pyramid=2 / b_adapt=2 / b_bias=0 / direct=3 / weightb=1 / open_gop=0 / weightp=2 / keyint=240 / keyint_min=121 / scenecut=40 / intra_refresh=0 / rc_lookahead=40 / rc=2pass / mbtree=1 / bitrate=500 / ratetol=1.0 / qcomp=0.60 / qpmin=0 / qpmax=69 / qpstep=4 / cplxblur=20.0 / qblur=0.5 / ip_ratio=1.40 / aq=1:1.00
mdhd_Duration : 3015976
Audio
ID : 2
Format : AAC
Format/Info : Advanced Audio Codec
Format profile : LC
Codec ID : 40
Duration : 50mn 16s
Bit rate mode : Variable
Bit rate : 128 Kbps
Channel(s) : 2 channels
Channel positions : Front: L R
Sampling rate : 48.0 KHz
Compression mode : Lossy
Stream size : 46.0 MiB (20%)

Релиз от:



   Похожие торренты   Торрент   Размер 
В этой теме нет новых непрочитанных сообщений. Камелот / Camelot [S01] (2011) HDRip-AVC | LostFilm, AlexFilm, BaibaKo

10 | 2

17.87 ГБ

В этой теме нет новых непрочитанных сообщений. Камелот / Camelot [S01] (2011) HDTVRip от AlexFilm

8 | 4

6.04 ГБ

В этой теме нет новых непрочитанных сообщений. Камелот / Camelot [S01] (2011) HDTVRip 720p от AlexFilm

38 | 9

15.23 ГБ

В этой теме нет новых непрочитанных сообщений. Камелот / Camelot [S01] (2011) BDRip 720p | AlexFilm, LostFilm

16 | 17

26.39 ГБ

В этой теме нет новых непрочитанных сообщений. Камелот / Camelot [01-10 из 10] (2011) WEB-DL 1080p от Generalfilm

7 | 0

13.65 ГБ

В этой теме нет новых непрочитанных сообщений. Камелот / Camelot [S01] (2011) HDRip | LostFilm

18 | 8

9.72 ГБ

В этой теме нет новых непрочитанных сообщений. Камелот / Camelot [S01] (2011) WEB-DLRip | P | LostFilm

13 | 11

5.01 ГБ




Вы не можете начинать темы
Вы не можете отвечать на сообщения
Вы не можете редактировать свои сообщения
Вы не можете удалять свои сообщения
Вы не можете добавлять вложения

Перейти:  
Для Мосгорсуда, Роскомнадзора и рекламодателей: mosgorsud-torrent[собачка]yandex.ru
 Вход
ppkBB3cker v.2 © 2008-2014 @ PPK
[ Time : 1.435s | 15 Queries | GZIP : Off ]

Торрент трекер RUTOR.IN, Не можете зайти на rutor.org? Какой новый адрес рутор? Какое зеркало рутор? Не работает rutor.org и зеркала? Тогда наш торрент специально для вас. Rutor.in неофициальное зеркало rutor. В случае если у Вас заблокирован rutor или вдруг Вы не можете на него зайти, то Вы без труда сможете скачать бесплатно и без рекламы последние новинки кино, игр, сериалов и прочего у нас, на Rutor.in. Не нужно использовать прокси, чтобы зайти на рутор, достаточно воспользоваться нашим ресурсом. Все новые фильмы, игры, сериалы, книги и музыка за 2013 и 2014 годы через торрент бесплатно. Скачивайте фильмы в хорошем качестве, игры для пк, xbox, playstation без регистрации. У нас вы найдете новые Зарубежные сериалы и Русские сериалы 2013, 2014, 2015 годов. Оставайтесь с нами, качайте любимые фильмы, игры, сериалы, книги и музыку.
cron