img image001 image001 image001 image001 image001 image001 image001 image001 image001 image001 image001 image001 image001 image001 image001

Planets Sun Sun Sun
Статистика раздачи
Автор: Nickolas3434 | Размер: 4.24 ГБ | Добавлен: 04 окт 2015
Раздают: 131    Качают: 23
Скачать торрент
Скачать торрент
Описание торрента

СообщениеДобавлено: 04 окт 2015 


Страна: Франция
Производство: France 3
Жанр: Приключения
Год выпуска: 2011
Продолжительность: 6 х ~ 00:50:00
Перевод: Профессиональный многоголосый, профессиональный двухголосый (Студия "СВ-Дубль" по заказу ГТРК "Культура", Телеканал "МногоТВ".)
Оригинальная аудиодорожка: Французская
Режиссер: Стефан Клавье
В ролях: Орельен Вик, Грегуар Колен, Тибо де Монталье, Лу Дуайон, Мартен Ламотт, Фанни Валетт, Жан-Мишель Тинивелли, Тибо де Монталембер, Фридерик Сорель
Описание:Для одних он — благородный бретонский рыцарь с таинственным прошлым, для других — Ястреб, известнейший капер Короля, бывший пират. Обвиненный в преступлении, которое не совершал, Ястреб должен расправить крылья и доказать свою невиновность. Место битвы с клеветниками — океан, со всей своей яростью.

Исходник: DVD9 R1
Тип релиза: DVDRip
Контейнер: AVI
Видео:720x400 (1.80:1), 25 fps, XviD build 50 ~1343 kbps avg, 0.19 bit/pixel
Аудио 1: 48 kHz, AC3 Dolby Digital, 2/0 (L,R) ch, ~ 192 kbps (русский)
Аудио 2: 48 kHz, AC3 Dolby Digital, 2/0 (L,R) ch, ~ 192 kbps (русский)
Аудио 3: 48 kHz, AC3 Dolby Digital, 2/0 (L,R) ch, ~ 256 kbps (французский)
Общее
Полное имя : D:ААА2ЯСТРЕБ1 серия.avi
Формат : AVI
Формат/Информация : Audio Video Interleave
Размер файла : 715 Мбайт
Продолжительность : 49 м.
Общий поток : 2004 Кбит/сек
Программа кодирования : VirtualDubMod 1.5.10.2 (build 2540/release)
Библиотека кодирования : VirtualDubMod build 2540/release
Видео
Идентификатор : 0
Формат : MPEG-4 Visual
Профиль формата : Advanced Simple@L5
Параметр BVOP формата : 2
Параметр QPel формата : Нет
Параметр GMC формата : Без точки перехода
Параметр матрицы формата : Default (MPEG)
Идентификатор кодека : XVID
Идентификатор кодека/Подсказка : XviD
Продолжительность : 49 м.
Битрейт : 1345 Кбит/сек
Ширина : 720 пикселей
Высота : 400 пикселей
Соотношение сторон : 16:9
Частота кадров : 25,000 кадров/сек
Цветовое пространство : YUV
Субдискретизация насыщенности : 4:2:0
Битовая глубина : 8 бит
Тип развёртки : Прогрессивная
Метод сжатия : С потерями
Бит/(Пиксели*Кадры) : 0.187
Размер потока : 480 Мбайт (67%)
Библиотека кодирования : XviD 1.2.1 (UTC 2008-12-04)
Аудио #1
Идентификатор : 1
Формат : AC-3
Формат/Информация : Audio Coding 3
Расширение режима : CM (complete main)
Параметр Endianness формата : Big
Идентификатор кодека : 2000
Продолжительность : 49 м.
Вид битрейта : Постоянный
Битрейт : 192 Кбит/сек
Каналы : 2 канала
Расположение каналов : Front: L R
Частота : 48,0 КГц
Битовая глубина : 16 бит
Метод сжатия : С потерями
Задержка видео : 500 мс.
Размер потока : 68,4 Мбайт (10%)
Выравнивание : Разделение по промежуткам
Продолжительность промежутка : 40 мс. (1,00 видеокадр)
Время предзагрузки промежутка : 500 мс.
Аудио #2
Идентификатор : 2
Формат : AC-3
Формат/Информация : Audio Coding 3
Расширение режима : CM (complete main)
Параметр Endianness формата : Big
Идентификатор кодека : 2000
Продолжительность : 49 м.
Вид битрейта : Постоянный
Битрейт : 192 Кбит/сек
Каналы : 2 канала
Расположение каналов : Front: L R
Частота : 48,0 КГц
Битовая глубина : 16 бит
Метод сжатия : С потерями
Размер потока : 68,5 Мбайт (10%)
Выравнивание : Разделение по промежуткам
Продолжительность промежутка : 40 мс. (1,00 видеокадр)
Время предзагрузки промежутка : 500 мс.
Аудио #3
Идентификатор : 3
Формат : AC-3
Формат/Информация : Audio Coding 3
Расширение режима : CM (complete main)
Параметр Endianness формата : Big
Идентификатор кодека : 2000
Продолжительность : 49 м.
Вид битрейта : Постоянный
Битрейт : 256 Кбит/сек
Каналы : 2 канала
Расположение каналов : Front: L R
Частота : 48,0 КГц
Битовая глубина : 16 бит
Метод сжатия : С потерями
Размер потока : 91,3 Мбайт (13%)
Выравнивание : Разделение по промежуткам
Продолжительность промежутка : 40 мс. (1,00 видеокадр)
Время предзагрузки промежутка : 500 мс.


Релиз: 089233



   Похожие торренты   Торрент   Размер 
В этой теме нет новых непрочитанных сообщений. Ястреб / L'épervier [01-06 из 6] (2011) IPTVRip от Files-x | P2

8 | 2

3.72 ГБ

В этой теме нет новых непрочитанных сообщений. Чёрный ястреб / Black Hawk Down (2001) DVDRip-AVC от NovaLan | Режиссёрская версия / Unrated Extended Cut

156 | 12

3.55 ГБ

В этой теме нет новых непрочитанных сообщений. Чёрный ястреб / Black Hawk Down (2001) DVDRip от NovaLan | Режиссёрская версия / Unrated Extended Cut

13 | 7

3.36 ГБ

В этой теме нет новых непрочитанных сообщений. Морской ястреб (1941) DVDRip от New-Team

9 | 6

744.21 МБ

В этой теме нет новых непрочитанных сообщений. Морской ястреб (1941) DVDRip от New-Team

16 | 5

1.09 ГБ

В этой теме нет новых непрочитанных сообщений. Меткий Ястреб / The Gun Hawk (1963) DVDRip | L1

40 | 8

939.21 МБ

В этой теме нет новых непрочитанных сообщений. Морской ястреб (1941) DVDRip-AVC от New-Team

12 | 12

1.09 ГБ




Вы не можете начинать темы
Вы не можете отвечать на сообщения
Вы не можете редактировать свои сообщения
Вы не можете удалять свои сообщения
Вы не можете добавлять вложения

Перейти:  
Для Мосгорсуда, Роскомнадзора и рекламодателей: mosgorsud-torrent[собачка]yandex.ru
 Вход
ppkBB3cker v.2 © 2008-2014 @ PPK
[ Time : 0.533s | 15 Queries | GZIP : Off ]

Торрент трекер RUTOR.IN, Не можете зайти на rutor.org? Какой новый адрес рутор? Какое зеркало рутор? Не работает rutor.org и зеркала? Тогда наш торрент специально для вас. Rutor.in неофициальное зеркало rutor. В случае если у Вас заблокирован rutor или вдруг Вы не можете на него зайти, то Вы без труда сможете скачать бесплатно и без рекламы последние новинки кино, игр, сериалов и прочего у нас, на Rutor.in. Не нужно использовать прокси, чтобы зайти на рутор, достаточно воспользоваться нашим ресурсом. Все новые фильмы, игры, сериалы, книги и музыка за 2013 и 2014 годы через торрент бесплатно. Скачивайте фильмы в хорошем качестве, игры для пк, xbox, playstation без регистрации. У нас вы найдете новые Зарубежные сериалы и Русские сериалы 2013, 2014, 2015 годов. Оставайтесь с нами, качайте любимые фильмы, игры, сериалы, книги и музыку.
cron