img image001 image001 image001 image001 image001 image001 image001 image001 image001 image001 image001 image001 image001 image001 image001

Planets Sun Sun Sun
Статистика раздачи
Автор: Nickolas3434 | Размер: 3.72 ГБ | Добавлен: 08 окт 2015
Раздают: 763    Качают: 640
Скачать торрент
Скачать торрент
Описание торрента

СообщениеДобавлено: 08 окт 2015 



Информация о фильме
Оригинальное название: Нюхач
Год выхода: 2013
Жанр: Детектив
Режиссер: Артем Литвиненко
В ролях: Кирилл Кяро, Иван Оганесян, Мария Аниканова, Нина Гогаева, Борис Каморзин, Тимофей Каратаев, Виолетта Трыкова, Тарас Готовцев, Денис Мартынов, Александр Новосёлов, Дмитрий Усов, Пётр Крылов (III)

О фильме:
Его зовут Нюхач. Он обладает сверхчувствительным обонянием, для него не существует тайн и нераскрываемых преступлений. По запаху Нюхач может рассказать все и даже больше о любом человеке: что он ел, с кем он спал, есть ли у него алиби. Уникальная способность Нюхача – его дар и проклятие одновременно. С одной стороны, он раскрывает самые изощренные и запутанные преступления, знает все сокровенные тайны политиков, бизнесменов и криминальных авторитетов. С другой - Нюхач абсолютно беззащитен перед окружающим миром, переполненным всевозможными запахами. Он не умеет строить отношения ни с женщинами, ни с близкими людьми, потому что знает о них все: ему невозможно сделать сюрприз, его нельзя обмануть, любой посторонний запах оттолкнет его от самого романтического свидания. У него сложная, но интересная жизнь...



Страна: Украина, Россия
Студия: «Film.ua Production»
Продолжительность: 16 х ~ 00:50:00
Перевод: Не трбуется

Файл
Формат: MP4
Качество: WEB-DLRip | КПК
Видео: MPEG-4 AVC (x264), 640x360, ~500 kbps, 25.000 fps
Аудио: AAC LC, 48.0 KHz, 2 ch, 128 Kbps
Субтитры: Нет

Семпл


Complete name : E:KinoNyuhach.AVC.WEB-DLRip.KPK.GFNyuhach.S02.2015.AVC.WEB-DLRip.KPK.GFNyuhach.s02e04.2015.AVC.WEB-DLRip.KPK.GF.mp4
Format : MPEG-4
Codec ID : M4V
File size : 226 MiB
Duration : 49mn 47s
Overall bit rate mode : Variable
Overall bit rate : 634 Kbps
Writing application : Lavf53.19.0

Video
ID : 1
Format : AVC
Format/Info : Advanced Video Codec
Format profile : High@L4.1
Format settings, CABAC : Yes
Format settings, ReFrames : 8 frames
Codec ID : avc1
Codec ID/Info : Advanced Video Coding
Duration : 49mn 47s
Bit rate : 500 Kbps
Width : 640 pixels
Height : 360 pixels
Display aspect ratio : 16:9
Frame rate mode : Constant
Frame rate : 25.000 fps
Color space : YUV
Chroma subsampling : 4:2:0
Bit depth : 8 bits
Scan type : Progressive
Bits/(Pixel*Frame) : 0.087
Stream size : 178 MiB (79%)
Writing library : x264 core 130 r2273 b3065e6
Encoding settings : cabac=1 / ref=8 / deblock=1:-2:-2 / analyse=0x3:0x133 / me=umh / subme=10 / psy=1 / psy_rd=1.00:0.00 / mixed_ref=1 / me_range=24 / chroma_me=1 / trellis=2 / 8x8dct=1 / cqm=0 / deadzone=21,11 / fast_pskip=1 / chroma_qp_offset=-2 / threads=12 / lookahead_threads=2 / sliced_threads=0 / nr=0 / decimate=0 / interlaced=0 / bluray_compat=0 / constrained_intra=0 / bframes=8 / b_pyramid=2 / b_adapt=2 / b_bias=0 / direct=3 / weightb=1 / open_gop=0 / weightp=2 / keyint=250 / keyint_min=126 / scenecut=40 / intra_refresh=0 / rc_lookahead=40 / rc=2pass / mbtree=1 / bitrate=500 / ratetol=1.0 / qcomp=0.60 / qpmin=0 / qpmax=69 / qpstep=4 / cplxblur=20.0 / qblur=0.5 / ip_ratio=1.40 / aq=1:1.00

Audio
ID : 2
Format : AAC
Format/Info : Advanced Audio Codec
Format profile : LC
Codec ID : 40
Duration : 49mn 47s
Bit rate mode : Variable
Bit rate : 128 Kbps
Channel(s) : 2 channels
Channel positions : Front: L R
Sampling rate : 48.0 KHz
Compression mode : Lossy
Stream size : 45.6 MiB (20%)

Релиз от:



   Похожие торренты   Торрент   Размер 
В этой теме нет новых непрочитанных сообщений. Нюхач [01-08 из 08] (2013) WEB-DLRip от Generalfilm | КПК

46 | 4

1.8 ГБ

В этой теме нет новых непрочитанных сообщений. Нюхач [01-08 из 08] (2013) WEB-DLRip от Generalfilm

234 | 68

5.08 ГБ

В этой теме нет новых непрочитанных сообщений. Нюхач [S02] (2015) WEB-DLRip от GeneralFilm

1229 | 344

4.34 ГБ

В этой теме нет новых непрочитанных сообщений. Нюхач [02х01-04 из 08] (2015) WEB-DLRip от GeneralFilm

207 | 91

2.17 ГБ

В этой теме нет новых непрочитанных сообщений. Нюхач [S01-02] (2013-2015) HDTVRip от MediaClub & Generalfilm

2340 | 1520

11.77 ГБ

В этой теме нет новых непрочитанных сообщений. Нюхач [S01-02] (2013-2015) WEB-DLRip

1498 | 862

10.94 ГБ

В этой теме нет новых непрочитанных сообщений. Нюхач [01-02х01-12 из 16] (2013-2015) HDTVRip от MediaClub & Generalfilm

207 | 94

8.76 ГБ




Вы не можете начинать темы
Вы не можете отвечать на сообщения
Вы не можете редактировать свои сообщения
Вы не можете удалять свои сообщения
Вы не можете добавлять вложения

Перейти:  
Для Мосгорсуда, Роскомнадзора и рекламодателей: mosgorsud-torrent[собачка]yandex.ru
 Вход
ppkBB3cker v.2 © 2008-2014 @ PPK
[ Time : 0.641s | 14 Queries | GZIP : Off ]

Торрент трекер RUTOR.IN, Не можете зайти на rutor.org? Какой новый адрес рутор? Какое зеркало рутор? Не работает rutor.org и зеркала? Тогда наш торрент специально для вас. Rutor.in неофициальное зеркало rutor. В случае если у Вас заблокирован rutor или вдруг Вы не можете на него зайти, то Вы без труда сможете скачать бесплатно и без рекламы последние новинки кино, игр, сериалов и прочего у нас, на Rutor.in. Не нужно использовать прокси, чтобы зайти на рутор, достаточно воспользоваться нашим ресурсом. Все новые фильмы, игры, сериалы, книги и музыка за 2013 и 2014 годы через торрент бесплатно. Скачивайте фильмы в хорошем качестве, игры для пк, xbox, playstation без регистрации. У нас вы найдете новые Зарубежные сериалы и Русские сериалы 2013, 2014, 2015 годов. Оставайтесь с нами, качайте любимые фильмы, игры, сериалы, книги и музыку.