img image001 image001 image001 image001 image001 image001 image001 image001 image001 image001 image001 image001 image001 image001 image001

Planets Sun Sun Sun
Статистика раздачи
Автор: Nickolas3434 | Размер: 1.79 ГБ | Добавлен: 08 окт 2015
Раздают: 55    Качают: 9
Скачать торрент
Скачать торрент
Описание торрента

СообщениеДобавлено: 08 окт 2015 

«Giving Hell... hell»



Год выпуска: 2015
Производство: США / DC Comics, Warner Bros. Television
Жанр: Ужасы, фэнтези

Режиссеры: Ромео Тироне, Нил Маршалл, Джон Бэдэм
Продюсеры: Дитер Исмаджил, Кевин Бланк, Дэниэл Церон
Актеры: Мэтт Райан, Люси Гриффитс, Хэролд Перрино, Чарльз Халфорд, Анхелика Селая, Майкл Джеймс Шоу, Манн Альфонсо, Джонджо О’Нил, Джереми Дэвис, Клер ван дер Бом

Описание фильма:
Бывалый охотник на демонов и оккультист Джон Константин специализируется на задании жару аду. Вооруженный таинственными знаниями темных искусств и своим острым умом, он ведет неравную борьбу…ну или по крайней мере вел. Так как его душа уже все равно проклята и попадет в ад, он решает оставить жизнь борца за добро, но когда демоны нацеливаются на Лив, дочь одного из самых давних друзей Константина, он неохотно возвращается, и он сделает все возможное, чтобы спасти ее.

Перевод: Дублированный [Кравец - Рекордз]
Субтитры: Отсутствуют




Продолжительность: ~00:40:00 серия
Качество видео: DVB

Видео: MPEG-TS, 720x576@768x576 (PAL 4:3), ~1372 Кбит/сек
Аудио: MP3 2.0, 128 Кбит/сек

Видео
Идентификатор : 197 (0xC5)
Идентификатор меню : 1 (0x1)
Формат : AVC
Формат/Информация : Advanced Video Codec
Профиль формата : High@L3
Параметр CABAC формата : Да
Параметр ReFrames формата : 4 кадра
Идентификатор кодека : 27
Продолжительность : 37 м.
Битрейт : 1372 Кбит/сек
Ширина : 720 пикселей
Высота : 576 пикселей
Соотношение сторон : 4:3
Частота кадров : 25,000 кадров/сек
Стандарт вещания : PAL
Цветовое пространство : YUV
Субдискретизация насыщенности : 4:2:0
Битовая глубина : 8 бит
Тип развёртки : Прогрессивная
Бит/(Пиксели*Кадры) : 0.132
Размер потока : 368 Мбайт (84%)
Библиотека кодирования : x264 core 124
Настройки программы : cabac=1 / ref=1 / deblock=1:-1:-1 / analyse=0x3:0x13 / me=dia / subme=1 / psy=1 / psy_rd=1.00:0.15 / mixed_ref=0 / me_range=16 / chroma_me=1 / trellis=0 / 8x8dct=1 / cqm=0 / deadzone=21,11 / fast_pskip=1 / chroma_qp_offset=0 / threads=8 / sliced_threads=0 / nr=0 / decimate=1 / interlaced=0 / bluray_compat=0 / constrained_intra=0 / bframes=3 / b_pyramid=2 / b_adapt=1 / b_bias=0 / direct=1 / weightb=1 / open_gop=0 / weightp=1 / keyint=60 / keyint_min=6 / scenecut=40 / intra_refresh=0 / rc_lookahead=0 / rc=cbr / mbtree=0 / bitrate=1372 / ratetol=1.0 / qcomp=0.60 / qpmin=10 / qpmax=51 / qpstep=4 / vbv_maxrate=1372 / vbv_bufsize=1500 / nal_hrd=none / ip_ratio=1.40 / pb_ratio=1.30 / aq=1:1.00

Аудио
Идентификатор : 196 (0xC4)
Идентификатор меню : 1 (0x1)
Формат : MPEG Audio
Версия формата : Version 1
Профиль формата : Layer 3
Режим : Joint stereo
Расширение режима : MS Stereo
Идентификатор кодека : 3
Продолжительность : 37 м.
Вид битрейта : Постоянный
Битрейт : 128 Кбит/сек
Каналы : 2 канала
Частота : 44,1 КГц
Метод сжатия : С потерями
Задержка видео : -6 мс.
Размер потока : 34,3 Мбайт (8%)
Язык : Russian

Сериал скачан с архива торрент-тв.
Когда раздача ведётся путём добавления новых серий, при каждом добавлении создётся новый торрент. Чтобы начать докачку новой серии, пользователям необходимо сделать следующее:
(1) остановить скачивание,
(2) удалить старый торрент у себя из клиента (старые серии удалять не надо),
(3) скачать новый торрент и запустить его у себя в клиенте вместо старого, при этом указать клиенту путь в старую папку, куда и должно происходить скачивание новых серий.
Ваш клиент при этом должен произвести хеширование (проверку) старой папки (если не производит сам - помогите ему сделать это), и будет докачивать только те серии, которых у вас ещё нет. Старые серии при этом не удаляются, а продолжают раздаваться!
Eсли вы уже удалили старые серии, то предотвратить повторную закачку старых серий можно, отжав галочку в соответсвующих местах при запуске нового торрента. По возможности, желательно не удалять старые серии как можно дольше, чтобы релизёр не столько продолжал раздавать старые серии, а смог сконцентрироваться на новых.

Скриншоты:



   Похожие торренты   Торрент   Размер 
В этой теме нет новых непрочитанных сообщений. Константин / Constantine [01х01-08] (2015) DVB | Кравец

8 | 3

3.56 ГБ

В этой теме нет новых непрочитанных сообщений. Константин / Constantine [01х01-10] (2015) DVB | Кравец

88 | 79

4.45 ГБ

В этой теме нет новых непрочитанных сообщений. Константин / Constantine [S01] (2015) WEB-DLRip | Кравец

224 | 431

8.24 ГБ

В этой теме нет новых непрочитанных сообщений. Константин / Constantine [01х01-10] (2014) HDTVRip 720p | Sub

5 | 17

8.38 ГБ

В этой теме нет новых непрочитанных сообщений. Константин / Constantine [01х01-06] (2014) HDTVRip | Kerob

218 | 512

2.72 ГБ

В этой теме нет новых непрочитанных сообщений. Константин / Constantine [01х01-07] (2014) HDTVRip | Kerob

201 | 440

3.21 ГБ

В этой теме нет новых непрочитанных сообщений. Константин / Constantine [01х01-08 из 13] (2014) WEB-DL 1080p | BaibaKo

163 | 382

13.55 ГБ




Вы не можете начинать темы
Вы не можете отвечать на сообщения
Вы не можете редактировать свои сообщения
Вы не можете удалять свои сообщения
Вы не можете добавлять вложения

Перейти:  
Для Мосгорсуда, Роскомнадзора и рекламодателей: mosgorsud-torrent[собачка]yandex.ru
 Вход
ppkBB3cker v.2 © 2008-2014 @ PPK
[ Time : 0.027s | 15 Queries | GZIP : Off ]

Торрент трекер RUTOR.IN, Не можете зайти на rutor.org? Какой новый адрес рутор? Какое зеркало рутор? Не работает rutor.org и зеркала? Тогда наш торрент специально для вас. Rutor.in неофициальное зеркало rutor. В случае если у Вас заблокирован rutor или вдруг Вы не можете на него зайти, то Вы без труда сможете скачать бесплатно и без рекламы последние новинки кино, игр, сериалов и прочего у нас, на Rutor.in. Не нужно использовать прокси, чтобы зайти на рутор, достаточно воспользоваться нашим ресурсом. Все новые фильмы, игры, сериалы, книги и музыка за 2013 и 2014 годы через торрент бесплатно. Скачивайте фильмы в хорошем качестве, игры для пк, xbox, playstation без регистрации. У нас вы найдете новые Зарубежные сериалы и Русские сериалы 2013, 2014, 2015 годов. Оставайтесь с нами, качайте любимые фильмы, игры, сериалы, книги и музыку.