img image001 image001 image001 image001 image001 image001 image001 image001 image001 image001 image001 image001 image001 image001 image001

Planets Sun Sun Sun
Статистика раздачи
Автор: Nickolas3434 | Размер: 1 ГБ | Добавлен: 08 окт 2015
Раздают: 20    Качают: 0
Скачать торрент
Скачать торрент
Описание торрента

СообщениеДобавлено: 08 окт 2015 



Информация о фильме

Оригинальное название: Нюхач
Год выпуска: 2015
Жанр: Детектив
Выпущено: Украина, «Film.ua Production»
Режиссер: Артем Литвиненко
В ролях: Кирилл Кяро, Иван Оганесян, Мария Аниканова, Нина Гогаева, Борис Каморзин, Тимофей Каратаев, Виолетта Трыкова, Тарас Готовцев, Денис Мартынов, Александр Новосёлов, Дмитрий Усов, Пётр Крылов (III)
О фильме: Его зовут Нюхач. Он обладает сверхчувствительным обонянием, для него не существует тайн и нераскрываемых преступлений. По запаху Нюхач может рассказать все и даже больше о любом человеке: что он ел, с кем он спал, есть ли у него алиби. Уникальная способность Нюхача – его дар и проклятие одновременно. С одной стороны, он раскрывает самые изощренные и запутанные преступления, знает все сокровенные тайны политиков, бизнесменов и криминальных авторитетов. С другой - Нюхач абсолютно беззащитен перед окружающим миром, переполненным всевозможными запахами. Он не умеет строить отношения ни с женщинами, ни с близкими людьми, потому что знает о них все: ему невозможно сделать сюрприз, его нельзя обмануть, любой посторонний запах оттолкнет его от самого романтического свидания. У него сложная, но интересная жизнь...

Файл

Качество: WEB-DLRip (AVC)
Видео: MPEG-4 AVC, ~ 2251 Кбит/с, 1024x578, 25 кадр/с
Аудио: АС3, 2 ch, 192 Кбит/с
Размер: 1 ГБ
Продолжительность: 1 х ~ 00:58:00
Язык: Русский
x264 [info]: frame I:743 Avg QP:12.71 size: 58994
x264 [info]: frame P:22343 Avg QP:15.85 size: 22973
x264 [info]: frame B:65076 Avg QP:17.50 size: 6674
x264 [info]: consecutive B-frames: 2.8% 4.1% 13.8% 39.0% 13.1% 23.1% 2.1% 0.6% 0.4% 0.5% 0.4%
x264 [info]: mb I I16..4: 14.1% 52.1% 33.8%
x264 [info]: mb P I16..4: 3.6% 18.6% 5.4% P16..4: 26.5% 27.7% 8.5% 2.6% 0.2% skip: 7.0%
x264 [info]: mb B I16..4: 1.0% 2.7% 0.7% B16..8: 28.6% 19.6% 3.5% direct: 5.8% skip:38.3% L0:39.5% L1:46.7% BI:13.8%
x264 [info]: 8x8 transform intra:64.5% inter:49.7%
x264 [info]: direct mvs spatial:98.5% temporal:1.5%
x264 [info]: coded y,uvDC,uvAC intra: 63.1% 69.9% 53.0% inter: 16.2% 21.9% 9.4%
x264 [info]: i16 v,h,dc,p: 49% 15% 5% 30%
x264 [info]: i8 v,h,dc,ddl,ddr,vr,hd,vl,hu: 24% 13% 16% 6% 7% 9% 8% 9% 10%
x264 [info]: i4 v,h,dc,ddl,ddr,vr,hd,vl,hu: 36% 14% 17% 4% 6% 7% 5% 5% 5%
x264 [info]: i8c dc,h,v,p: 29% 33% 28% 11%
x264 [info]: Weighted P-Frames: Y:5.0% UV:2.8%
x264 [info]: ref P L0: 54.5% 9.0% 18.5% 5.3% 4.0% 2.7% 2.3% 1.3% 1.2% 1.1% 0.2% 0.0%
x264 [info]: ref B L0: 81.7% 10.3% 3.4% 1.6% 1.0% 0.8% 0.6% 0.3% 0.2%
x264 [info]: ref B L1: 94.5% 5.5%
x264 [info]: kb/s:2249.16


Общее
Уникальный идентификатор : 201145070764032096881585418834974726718 (0x975321A9A8962B14920B938AB2A1DA3E)
Полное имя : D:ЗагрузкиNjuhach-2.WEB-DLRip.(AVC).ExKinoRayNjuhach-2.(01.seriya.iz.08).2015.x264.WEB-DLRip.(AVC).ExKinoRay.mkv
Формат : Matroska
Версия формата : Version 2
Размер файла : 1,00 Гбайт
Продолжительность : 58 м.
Общий поток : 2443 Кбит/сек
Название фильма : Нюхач.II.2015.(1-я серия).Rip by: ollan
Дата кодирования : UTC 2015-10-07 16:16:21
Программа кодирования : mkvmerge v5.6.0 ('Kenya Kane') built on May 27 2012 16:44:04
Библиотека кодирования : libebml v1.2.3 + libmatroska v1.3.0

Видео
Идентификатор : 1
Формат : AVC
Формат/Информация : Advanced Video Codec
Профиль формата : High@L4.1
Параметр CABAC формата : Да
Параметр ReFrames формата : 10 кадров
Идентификатор кодека : V_MPEG4/ISO/AVC
Продолжительность : 58 м.
Битрейт : 2251 Кбит/сек
Ширина : 1024 пикселя
Высота : 578 пикселей
Соотношение сторон : 16:9
Режим частоты кадров : Постоянный
Частота кадров : 25,000 кадров/сек
Цветовое пространство : YUV
Субдискретизация насыщенности : 4:2:0
Битовая глубина : 8 бит
Тип развёртки : Прогрессивная
Бит/(Пиксели*Кадры) : 0.152
Размер потока : 926 Мбайт (90%)
Библиотека кодирования : x264 core 125 r2200 999b753
Настройки программы : cabac=1 / ref=10 / deblock=1:-3:-3 / analyse=0x3:0x133 / me=umh / subme=11 / psy=1 / psy_rd=1.00:0.10 / mixed_ref=1 / me_range=32 / chroma_me=1 / trellis=2 / 8x8dct=1 / cqm=0 / deadzone=21,11 / fast_pskip=0 / chroma_qp_offset=-3 / threads=12 / lookahead_threads=2 / sliced_threads=0 / nr=0 / decimate=0 / interlaced=0 / bluray_compat=0 / constrained_intra=0 / bframes=10 / b_pyramid=2 / b_adapt=2 / b_bias=0 / direct=3 / weightb=1 / open_gop=0 / weightp=2 / keyint=250 / keyint_min=25 / scenecut=40 / intra_refresh=0 / rc=2pass / mbtree=0 / bitrate=2251 / ratetol=1.0 / qcomp=0.60 / qpmin=0 / qpmax=69 / qpstep=4 / cplxblur=20.0 / qblur=0.5 / ip_ratio=1.40 / pb_ratio=1.30 / aq=1:1.00
Язык : Russian
Default : Да
Forced : Нет

Аудио
Идентификатор : 2
Формат : AC-3
Формат/Информация : Audio Coding 3
Расширение режима : CM (complete main)
Параметр Endianness формата : Big
Идентификатор кодека : A_AC3
Продолжительность : 58 м.
Вид битрейта : Постоянный
Битрейт : 192 Кбит/сек
Каналы : 2 канала
Расположение каналов : Front: L R
Частота : 48,0 КГц
Битовая глубина : 16 бит
Метод сжатия : С потерями
Размер потока : 80,7 Мбайт (8%)
Язык : Russian
Default : Да
Forced : Нет








Релиз от: Rip by:



   Похожие торренты   Торрент   Размер 
В этой теме нет новых непрочитанных сообщений. Нюхач [02х01-04 из 08] (2015) WEB-DLRip от GeneralFilm

207 | 91

2.17 ГБ

В этой теме нет новых непрочитанных сообщений. Нюхач [S02] (2015) WEB-DLRip-AVC от ExKinoRay

854 | 427

6.91 ГБ

В этой теме нет новых непрочитанных сообщений. Нюхач [01-02х01-12 из 16] (2013-2015) HDTVRip от MediaClub & Generalfilm

111 | 54

8.76 ГБ

В этой теме нет новых непрочитанных сообщений. Нюхач [03x01-02 из 08] (2017) WEB-DLRip-AVC от ExKinoRay

45 | 1

1.34 ГБ

В этой теме нет новых непрочитанных сообщений. Нюхач [S02] (2015) WEB-DLRip-AVC

906 | 236

3.81 ГБ

В этой теме нет новых непрочитанных сообщений. Нюхач [S02] (2015) WEB-DLRip от GeneralFilm

1247 | 347

4.34 ГБ

В этой теме нет новых непрочитанных сообщений. Нюхач [S01-02] (2013-2015) WEB-DLRip

986 | 503

10.94 ГБ




Вы не можете начинать темы
Вы не можете отвечать на сообщения
Вы не можете редактировать свои сообщения
Вы не можете удалять свои сообщения
Вы не можете добавлять вложения

Перейти:  
Для Мосгорсуда, Роскомнадзора и рекламодателей: mosgorsud-torrent[собачка]yandex.ru
 Вход
ppkBB3cker v.2 © 2008-2014 @ PPK
[ Time : 0.086s | 16 Queries | GZIP : Off ]

Торрент трекер RUTOR.IN, Не можете зайти на rutor.org? Какой новый адрес рутор? Какое зеркало рутор? Не работает rutor.org и зеркала? Тогда наш торрент специально для вас. Rutor.in неофициальное зеркало rutor. В случае если у Вас заблокирован rutor или вдруг Вы не можете на него зайти, то Вы без труда сможете скачать бесплатно и без рекламы последние новинки кино, игр, сериалов и прочего у нас, на Rutor.in. Не нужно использовать прокси, чтобы зайти на рутор, достаточно воспользоваться нашим ресурсом. Все новые фильмы, игры, сериалы, книги и музыка за 2013 и 2014 годы через торрент бесплатно. Скачивайте фильмы в хорошем качестве, игры для пк, xbox, playstation без регистрации. У нас вы найдете новые Зарубежные сериалы и Русские сериалы 2013, 2014, 2015 годов. Оставайтесь с нами, качайте любимые фильмы, игры, сериалы, книги и музыку.
cron