img image001 image001 image001 image001 image001 image001 image001 image001 image001 image001 image001 image001 image001 image001 image001

Planets Sun Sun Sun
Статистика раздачи
Автор: Nickolas3434 | Размер: 6.91 ГБ | Добавлен: 11 окт 2015
Раздают: 839    Качают: 440
Скачать торрент
Скачать торрент
Описание торрента

СообщениеДобавлено: 11 окт 2015 



Информация о фильме

Оригинальное название: Нюхач
Год выпуска: 2015
Жанр: Детектив
Выпущено: Украина, «Film.ua Production»
Режиссер: Артем Литвиненко
В ролях: Кирилл Кяро, Иван Оганесян, Мария Аниканова, Нина Гогаева, Борис Каморзин, Тимофей Каратаев, Виолетта Трыкова, Тарас Готовцев, Денис Мартынов, Александр Новосёлов, Дмитрий Усов, Пётр Крылов (III)
О фильме: Его зовут Нюхач. Он обладает сверхчувствительным обонянием, для него не существует тайн и нераскрываемых преступлений. По запаху Нюхач может рассказать все и даже больше о любом человеке: что он ел, с кем он спал, есть ли у него алиби. Уникальная способность Нюхача – его дар и проклятие одновременно. С одной стороны, он раскрывает самые изощренные и запутанные преступления, знает все сокровенные тайны политиков, бизнесменов и криминальных авторитетов. С другой - Нюхач абсолютно беззащитен перед окружающим миром, переполненным всевозможными запахами. Он не умеет строить отношения ни с женщинами, ни с близкими людьми, потому что знает о них все: ему невозможно сделать сюрприз, его нельзя обмануть, любой посторонний запах оттолкнет его от самого романтического свидания. У него сложная, но интересная жизнь...

Файл

Качество: WEB-DLRip (AVC)
Видео: MPEG-4 AVC, ~ 2200 Кбит/с, 1022x576, 25 кадр/с
Аудио: АС3, 2 ch, 192 Кбит/с
Размер: 6.91 ГБ
Продолжительность: 8 х ~ 00:58:00
Язык: Русский
x264 [info]: frame I:745 Avg QP:12.79 size: 58362
x264 [info]: frame P:22365 Avg QP:15.94 size: 22496
x264 [info]: frame B:65052 Avg QP:17.59 size: 6412
x264 [info]: consecutive B-frames: 2.8% 4.3% 13.6% 39.1% 13.0% 23.2% 2.1% 0.7% 0.4% 0.4% 0.4%
x264 [info]: mb I I16..4: 13.7% 52.7% 33.6%
x264 [info]: mb P I16..4: 3.5% 18.2% 5.1% P16..4: 27.0% 28.0% 8.6% 2.6% 0.2% skip: 6.8%
x264 [info]: mb B I16..4: 0.9% 2.4% 0.5% B16..8: 28.8% 19.5% 3.4% direct: 5.7% skip:38.7% L0:39.2% L1:46.9% BI:13.9%
x264 [info]: 8x8 transform intra:65.5% inter:48.9%
x264 [info]: direct mvs spatial:98.5% temporal:1.5%
x264 [info]: coded y,uvDC,uvAC intra: 65.2% 70.5% 53.9% inter: 16.3% 21.7% 9.4%
x264 [info]: i16 v,h,dc,p: 48% 15% 5% 32%
x264 [info]: i8 v,h,dc,ddl,ddr,vr,hd,vl,hu: 21% 13% 15% 6% 7% 9% 8% 9% 11%
x264 [info]: i4 v,h,dc,ddl,ddr,vr,hd,vl,hu: 32% 15% 18% 4% 7% 7% 6% 6% 6%
x264 [info]: i8c dc,h,v,p: 32% 31% 26% 11%
x264 [info]: Weighted P-Frames: Y:5.1% UV:2.9%
x264 [info]: ref P L0: 54.7% 9.0% 18.5% 5.2% 3.9% 2.6% 2.3% 1.3% 1.2% 1.1% 0.2% 0.0%
x264 [info]: ref B L0: 82.0% 10.3% 3.4% 1.5% 1.0% 0.8% 0.6% 0.3% 0.2%
x264 [info]: ref B L1: 94.5% 5.5%
x264 [info]: kb/s:2186.20


Общее
Уникальный идентификатор : 237472398408221816964000428213480318606 (0xB2A78532C5E58E85962AB15267F1E68E)
Полное имя : D:ЗагрузкиNjuhach-2.WEB-DLRip.(AVC).ExKinoRayNjuhach.(S02E01).2015.x264.WEB-DLRip.(AVC).ExKinoRay.mkv
Формат : Matroska
Версия формата : Version 2
Размер файла : 1001 Мбайт
Продолжительность : 58 м.
Общий поток : 2380 Кбит/сек
Название фильма : Нюхач.II.2015.(1-я серия).Rip by: ollan
Дата кодирования : UTC 2015-10-08 09:13:01
Программа кодирования : mkvmerge v5.6.0 ('Kenya Kane') built on May 27 2012 16:44:04
Библиотека кодирования : libebml v1.2.3 + libmatroska v1.3.0

Видео
Идентификатор : 1
Формат : AVC
Формат/Информация : Advanced Video Codec
Профиль формата : High@L4.1
Параметр CABAC формата : Да
Параметр ReFrames формата : 10 кадров
Идентификатор кодека : V_MPEG4/ISO/AVC
Продолжительность : 58 м.
Битрейт : 2188 Кбит/сек
Ширина : 1022 пикселя
Высота : 576 пикселей
Соотношение сторон : 16:9
Режим частоты кадров : Постоянный
Частота кадров : 25,000 кадров/сек
Цветовое пространство : YUV
Субдискретизация насыщенности : 4:2:0
Битовая глубина : 8 бит
Тип развёртки : Прогрессивная
Бит/(Пиксели*Кадры) : 0.149
Размер потока : 900 Мбайт (90%)
Библиотека кодирования : x264 core 125 r2200 999b753
Настройки программы : cabac=1 / ref=10 / deblock=1:-3:-3 / analyse=0x3:0x133 / me=umh / subme=11 / psy=1 / psy_rd=1.00:0.10 / mixed_ref=1 / me_range=32 / chroma_me=1 / trellis=2 / 8x8dct=1 / cqm=0 / deadzone=21,11 / fast_pskip=0 / chroma_qp_offset=-3 / threads=12 / lookahead_threads=2 / sliced_threads=0 / nr=0 / decimate=0 / interlaced=0 / bluray_compat=0 / constrained_intra=0 / bframes=10 / b_pyramid=2 / b_adapt=2 / b_bias=0 / direct=3 / weightb=1 / open_gop=0 / weightp=2 / keyint=250 / keyint_min=25 / scenecut=40 / intra_refresh=0 / rc=2pass / mbtree=0 / bitrate=2188 / ratetol=1.0 / qcomp=0.60 / qpmin=0 / qpmax=69 / qpstep=4 / cplxblur=20.0 / qblur=0.5 / ip_ratio=1.40 / pb_ratio=1.30 / aq=1:1.00
Язык : Russian
Default : Да
Forced : Нет

Аудио
Идентификатор : 2
Формат : AC-3
Формат/Информация : Audio Coding 3
Расширение режима : CM (complete main)
Параметр Endianness формата : Big
Идентификатор кодека : A_AC3
Продолжительность : 58 м.
Вид битрейта : Постоянный
Битрейт : 192 Кбит/сек
Каналы : 2 канала
Расположение каналов : Front: L R
Частота : 48,0 КГц
Битовая глубина : 16 бит
Метод сжатия : С потерями
Размер потока : 80,7 Мбайт (8%)
Язык : Russian
Default : Да
Forced : Нет








Релиз от: Rip by:



   Похожие торренты   Торрент   Размер 
В этой теме нет новых непрочитанных сообщений. Нюхач [02х01 из 08] (2015) WEB-DLRip-AVC от ExKinoRay

20 | 0

1 ГБ

В этой теме нет новых непрочитанных сообщений. Нюхач [03x01-02 из 08] (2017) WEB-DLRip-AVC от ExKinoRay

45 | 1

1.34 ГБ

В этой теме нет новых непрочитанных сообщений. Нюхач [S02] (2015) WEB-DLRip-AVC

898 | 234

3.81 ГБ

В этой теме нет новых непрочитанных сообщений. Нюхач [S01-02] (2013-2015) WEB-DLRip

925 | 500

10.94 ГБ

В этой теме нет новых непрочитанных сообщений. Нюхач [S02] (2015) WEB-DLRip от GeneralFilm

1238 | 346

4.34 ГБ

В этой теме нет новых непрочитанных сообщений. Нюхач [02х01-04 из 08] (2015) WEB-DLRip от GeneralFilm

207 | 91

2.17 ГБ

В этой теме нет новых непрочитанных сообщений. Нюхач [S01-02] (2013-2015) WEB-DLRip от Generalfilm | КПК

554 | 346

3.72 ГБ




Вы не можете начинать темы
Вы не можете отвечать на сообщения
Вы не можете редактировать свои сообщения
Вы не можете удалять свои сообщения
Вы не можете добавлять вложения

Перейти:  
Для Мосгорсуда, Роскомнадзора и рекламодателей: mosgorsud-torrent[собачка]yandex.ru
 Вход
ppkBB3cker v.2 © 2008-2014 @ PPK
[ Time : 0.051s | 15 Queries | GZIP : Off ]

cron