img image001 image001 image001 image001 image001 image001 image001 image001 image001 image001 image001 image001 image001 image001 image001

Planets Sun Sun Sun
Статистика раздачи
Автор: Nickolas3434 | Размер: 5.27 ГБ | Добавлен: 12 окт 2015
Раздают: 110    Качают: 157
Скачать торрент
Скачать торрент
Описание торрента

СообщениеДобавлено: 12 окт 2015 



Информация о фильме
Название: Штамм
Оригинальное название: The Strain
Год выхода: 2014
Жанр: Ужасы, фантастика, драма, вампиры, экранизация
Режиссер: Гильермо Дель Торо, Дэвид Семел, Кит Гордон
В ролях: Дэвид Брэдли (I), Кори Столл, Миа Маэстро, Джонатан Хайд, Энн Бетанкорт, Бен Хайленд, Николай Вич, Педро Мигель Арсе, Дрю Нельсон, Джо Веркилло, Джим Уотсон, Алекс Пэкстон, Джонатан Поттс, Рихард Заммель, Шон Эстин, Дэррин Бэйкер, Натали Браун, Дональд Бурда, Кевин Дюран, Хавьер Ботет, Реджина Кинг

О фильме:
В аэропорту Нью-Йорка экстренно приземляется самолет, полный мертвецов. Для выяснения обстоятельств их смерти на борт направляются ученые, возглавляемые лучшим городским эпидемиологом Эфраимом Гудвезером. В ходе исследований становится ясно, что пассажиры заражены вирусом вампиризма, который грозит перерасти в масштабную эпидемию, способную погубить все человечество. В обществе нарастает паника, а вызов болезни готовы бросить всего несколько человек: доктор Гудвезер, его команда медиков и группа обладающих специальными знаниями горожан, в состав которой войдет и крысолов по имени Василий Фет.



Сезон 1
01. Начало (Night Zero)
02. Ящик (The Box)
03. Процесс пошел (Gone Smooth)
04. Не для всех (It's Not for Everyone)
05. Сбежавшие (Runaways)
06. Затмение / Occultation
07. За оказанные услуги / For Services Rendered
08. Создания ночи / Creatures of the Night
09. Исчезнувшие / The Disappeared
10. Любимые / Loved Ones
11. Контактный рельс / The Third Rail
12. Отпевание / Last Rites
13. Хозяин / The Master
Сезон 2
01. Бруклин, Нью-Йорк (BK, NY)
02. Любыми средствами / By Any Means
03. Форт неповиновения / Fort Defiance
04. Серебряный Ангел / The Silver Angel
05. Быстро и безболезненно / Quick and Painless
06. Сущность / Identity
07. Рождённый / The Born
08. Вторжение / Intruders
09. Битва за Ред Хук / The Battle for Red Hook
10. Убийца / The Assassin
11. Тупик / Dead End
12. Павший свет / Fallen Light
13. Ночной поезд / Night Train

Страна: США
Студия: Mirada
Продолжительность: 1 x 01:11:39, 25 x ~ 00:44:00
Перевод: Профессиональный (многоголосый, закадровый) [AlexFilm]

Файл
Формат: MP4
Качество: WEB-DLRip | КПК
Видео: MPEG-4 AVC (x264), 640x360, ~500 kbps, 23.976 fps
Аудио: AAC LC, 48.0 KHz, 2 ch, 128 Kbps
Субтитры: Нет

Семпл


Complete name : E:KinoShtamm.AVC.WEB-DLRip.KPK.AF.GeneralfilmShtamm.S02.2015.AVC.WEB-DLRip.KPK.AF.GeneralfilmShtamm.s02e04.2015.AVC.WEB-DLRip.KPK.AF.Generalfilm.mp4
Format : MPEG-4
Codec ID : M4V
File size : 215 MiB
Duration : 47mn 25s
Overall bit rate mode : Variable
Overall bit rate : 634 Kbps
Writing application : Lavf53.19.0

Video
ID : 1
Format : AVC
Format/Info : Advanced Video Codec
Format profile : High@L4.1
Format settings, CABAC : Yes
Format settings, ReFrames : 8 frames
Codec ID : avc1
Codec ID/Info : Advanced Video Coding
Duration : 47mn 25s
Source duration : 18mn 47s
Bit rate : 500 Kbps
Width : 640 pixels
Height : 360 pixels
Display aspect ratio : 16:9
Frame rate mode : Constant
Frame rate : 23.976 fps
Color space : YUV
Chroma subsampling : 4:2:0
Bit depth : 8 bits
Scan type : Progressive
Bits/(Pixel*Frame) : 0.091
Stream size : 170 MiB (79%)
Source stream size : 170 MiB (79%)
Writing library : x264 core 130 r2273 b3065e6
Encoding settings : cabac=1 / ref=8 / deblock=1:-2:-2 / analyse=0x3:0x133 / me=umh / subme=10 / psy=1 / psy_rd=1.00:0.00 / mixed_ref=1 / me_range=24 / chroma_me=1 / trellis=2 / 8x8dct=1 / cqm=0 / deadzone=21,11 / fast_pskip=1 / chroma_qp_offset=-2 / threads=12 / lookahead_threads=2 / sliced_threads=0 / nr=0 / decimate=0 / interlaced=0 / bluray_compat=0 / constrained_intra=0 / bframes=8 / b_pyramid=2 / b_adapt=2 / b_bias=0 / direct=3 / weightb=1 / open_gop=0 / weightp=2 / keyint=240 / keyint_min=121 / scenecut=40 / intra_refresh=0 / rc_lookahead=40 / rc=2pass / mbtree=1 / bitrate=500 / ratetol=1.0 / qcomp=0.60 / qpmin=0 / qpmax=69 / qpstep=4 / cplxblur=20.0 / qblur=0.5 / ip_ratio=1.40 / aq=1:1.00
mdhd_Duration : 2845723

Audio
ID : 2
Format : AAC
Format/Info : Advanced Audio Codec
Format profile : LC
Codec ID : 40
Duration : 47mn 25s
Bit rate mode : Variable
Bit rate : 128 Kbps
Channel(s) : 2 channels
Channel positions : Front: L R
Sampling rate : 48.0 KHz
Compression mode : Lossy
Stream size : 43.4 MiB (20%)

Релиз от:



   Похожие торренты   Торрент   Размер 
В этой теме нет новых непрочитанных сообщений. Штамм / The Strain [S01-02] (2014-2015) WEB-DLRip от Generalfilm | AlexFilm

90 | 161

16.95 ГБ

В этой теме нет новых непрочитанных сообщений. Штамм / The Strain [S02] (2015) WEB-DLRip от GeneralFilm | AlexFilm

70 | 86

9.52 ГБ

В этой теме нет новых непрочитанных сообщений. Штамм / The Strain [S01] (2014) WEB-DLRip от Generalfilm | AlexFilm

130 | 80

8.36 ГБ

В этой теме нет новых непрочитанных сообщений. Штамм / The Strain [S01] (2014) WEB-DLRip от Generalfilm | КПК | AlexFilm

88 | 15

2.62 ГБ

В этой теме нет новых непрочитанных сообщений. Штамм / The Strain [02x01-02 из 13] (2015) WEB-DLRip от GeneralFilm | AlexFilm

25 | 14

1.74 ГБ

В этой теме нет новых непрочитанных сообщений. Штамм / The Strain [S01-03] (2014-2016) WEB-DLRip от Generalfilm | КПК | AlexFilm

79 | 42

7.17 ГБ

В этой теме нет новых непрочитанных сообщений. Штамм / The Strain [S02] (2015) WEB-DLRip | AlexFilm

287 | 319

7.26 ГБ




Вы не можете начинать темы
Вы не можете отвечать на сообщения
Вы не можете редактировать свои сообщения
Вы не можете удалять свои сообщения
Вы не можете добавлять вложения

Перейти:  
Для Мосгорсуда, Роскомнадзора и рекламодателей: mosgorsud-torrent[собачка]yandex.ru
 Вход
ppkBB3cker v.2 © 2008-2014 @ PPK
[ Time : 0.033s | 14 Queries | GZIP : Off ]

Торрент трекер RUTOR.IN, Не можете зайти на rutor.org? Какой новый адрес рутор? Какое зеркало рутор? Не работает rutor.org и зеркала? Тогда наш торрент специально для вас. Rutor.in неофициальное зеркало rutor. В случае если у Вас заблокирован rutor или вдруг Вы не можете на него зайти, то Вы без труда сможете скачать бесплатно и без рекламы последние новинки кино, игр, сериалов и прочего у нас, на Rutor.in. Не нужно использовать прокси, чтобы зайти на рутор, достаточно воспользоваться нашим ресурсом. Все новые фильмы, игры, сериалы, книги и музыка за 2013 и 2014 годы через торрент бесплатно. Скачивайте фильмы в хорошем качестве, игры для пк, xbox, playstation без регистрации. У нас вы найдете новые Зарубежные сериалы и Русские сериалы 2013, 2014, 2015 годов. Оставайтесь с нами, качайте любимые фильмы, игры, сериалы, книги и музыку.