img image001 image001 image001 image001 image001 image001 image001 image001 image001 image001 image001 image001 image001 image001 image001

Planets Sun Sun Sun
Статистика раздачи
Автор: Nickolas3434 | Размер: 16.95 ГБ | Добавлен: 12 окт 2015
Раздают: 90    Качают: 161
Скачать торрент
Скачать торрент
Описание торрента

СообщениеДобавлено: 12 окт 2015 



Информация о фильме
Название: Штамм
Оригинальное название: The Strain
Год выхода: 2014
Жанр: Ужасы, фантастика, драма, вампиры, экранизация
Режиссер: Гильермо Дель Торо, Дэвид Семел, Кит Гордон
В ролях: Дэвид Брэдли (I), Кори Столл, Миа Маэстро, Джонатан Хайд, Энн Бетанкорт, Бен Хайленд, Николай Вич, Педро Мигель Арсе, Дрю Нельсон, Джо Веркилло, Джим Уотсон, Алекс Пэкстон, Джонатан Поттс, Рихард Заммель, Шон Эстин, Дэррин Бэйкер, Натали Браун, Дональд Бурда, Кевин Дюран, Хавьер Ботет, Реджина Кинг

О фильме:
В аэропорту Нью-Йорка экстренно приземляется самолет, полный мертвецов. Для выяснения обстоятельств их смерти на борт направляются ученые, возглавляемые лучшим городским эпидемиологом Эфраимом Гудвезером. В ходе исследований становится ясно, что пассажиры заражены вирусом вампиризма, который грозит перерасти в масштабную эпидемию, способную погубить все человечество. В обществе нарастает паника, а вызов болезни готовы бросить всего несколько человек: доктор Гудвезер, его команда медиков и группа обладающих специальными знаниями горожан, в состав которой войдет и крысолов по имени Василий Фет.



Сезон 1
01. Начало (Night Zero)
02. Ящик (The Box)
03. Процесс пошел (Gone Smooth)
04. Не для всех (It's Not for Everyone)
05. Сбежавшие (Runaways)
06. Затмение / Occultation
07. За оказанные услуги / For Services Rendered
08. Создания ночи / Creatures of the Night
09. Исчезнувшие / The Disappeared
10. Любимые / Loved Ones
11. Контактный рельс / The Third Rail
12. Отпевание / Last Rites
13. Хозяин / The Master
Сезон 2
01. Бруклин, Нью-Йорк (BK, NY)
02. Любыми средствами / By Any Means
03. Форт неповиновения / Fort Defiance
04. Серебряный Ангел / The Silver Angel
05. Быстро и безболезненно / Quick and Painless
06. Сущность / Identity
07. Рождённый / The Born
08. Вторжение / Intruders
09. Битва за Ред Хук / The Battle for Red Hook
10. Убийца / The Assassin
11. Тупик / Dead End
12. Павший свет / Fallen Light
13. Ночной поезд / Night Train

Страна: США
Студия: Mirada
Продолжительность: 1 x 01:11:39, 25 x ~ 00:44:00
Перевод: Профессиональный (многоголосый, закадровый) [AlexFilm]

Файл
Формат: AVI
Качество: WEB-DLRip
Видео: XviD, 720x400, ~1800 kbps, 23.976 fps
Аудио: AC3, 48.0 KHz, 6 ch, 192 Kbps
Субтитры: Нет

Семпл


Complete name : E:KinoShtamm.XviD.WEB-DLRip.AF.GeneralfilmShtamm.S01.2014.XviD.WEB-DLRip.AF.GeneralfilmShtamm.s01e02.2014.XviD.WEB-DLRip.AF.Generalfilm.avi
Format : AVI
Format/Info : Audio Video Interleave
File size : 627 MiB
Duration : 43mn 42s
Overall bit rate : 2 005 Kbps
Writing application : VirtualDubMod 1.5.10.3 | www.virtualdub-fr.org || (build 2550/release)
Writing library : VirtualDubMod build 2550/release

Video
ID : 0
Format : MPEG-4 Visual
Format profile : Advanced Simple@L5
Format settings, BVOP : 2
Format settings, QPel : No
Format settings, GMC : No warppoints
Format settings, Matrix : Default (H.263)
Codec ID : XVID
Codec ID/Hint : XviD
Duration : 43mn 42s
Bit rate : 1 803 Kbps
Width : 720 pixels
Height : 400 pixels
Display aspect ratio : 16:9
Frame rate : 23.976 fps
Color space : YUV
Chroma subsampling : 4:2:0
Bit depth : 8 bits
Scan type : Progressive
Compression mode : Lossy
Bits/(Pixel*Frame) : 0.261
Stream size : 564 MiB (90%)
Writing library : XviD 1.2.1 (UTC 2008-12-04)

Audio
ID : 1
Format : AC-3
Format/Info : Audio Coding 3
Mode extension : CM (complete main)
Format settings, Endianness : Big
Codec ID : 2000
Duration : 43mn 42s
Bit rate mode : Constant
Bit rate : 192 Kbps
Channel count : 6 channels
Channel positions : Front: L C R, Side: L R, LFE
Sampling rate : 48.0 KHz
Bit depth : 16 bits
Compression mode : Lossy
Stream size : 60.0 MiB (10%)
Alignment : Split accross interleaves
Interleave, duration : 42 ms (1.00 video frame)
Interleave, preload duration : 500 ms

Релиз от:



   Похожие торренты   Торрент   Размер 
В этой теме нет новых непрочитанных сообщений. Штамм / The Strain [S01-02] (2014-2015) WEB-DLRip от Generalfilm | КПК | AlexFilm

110 | 157

5.27 ГБ

В этой теме нет новых непрочитанных сообщений. Штамм / The Strain [S02] (2015) WEB-DLRip от GeneralFilm | AlexFilm

70 | 86

9.52 ГБ

В этой теме нет новых непрочитанных сообщений. Штамм / The Strain [S01] (2014) WEB-DLRip от Generalfilm | AlexFilm

130 | 80

8.36 ГБ

В этой теме нет новых непрочитанных сообщений. Штамм / The Strain [S01] (2014) WEB-DLRip от Generalfilm | КПК | AlexFilm

88 | 15

2.62 ГБ

В этой теме нет новых непрочитанных сообщений. Штамм / The Strain [02x01-02 из 13] (2015) WEB-DLRip от GeneralFilm | AlexFilm

25 | 14

1.74 ГБ

В этой теме нет новых непрочитанных сообщений. Штамм / The Strain [S01-03] (2014-2016) WEB-DLRip от Generalfilm | КПК | AlexFilm

79 | 42

7.17 ГБ

В этой теме нет новых непрочитанных сообщений. Штамм / The Strain [S02] (2015) WEB-DLRip | AlexFilm

287 | 319

7.26 ГБ




Вы не можете начинать темы
Вы не можете отвечать на сообщения
Вы не можете редактировать свои сообщения
Вы не можете удалять свои сообщения
Вы не можете добавлять вложения

Перейти:  
Для Мосгорсуда, Роскомнадзора и рекламодателей: mosgorsud-torrent[собачка]yandex.ru
 Вход
ppkBB3cker v.2 © 2008-2014 @ PPK
[ Time : 1.661s | 14 Queries | GZIP : Off ]

Торрент трекер RUTOR.IN, Не можете зайти на rutor.org? Какой новый адрес рутор? Какое зеркало рутор? Не работает rutor.org и зеркала? Тогда наш торрент специально для вас. Rutor.in неофициальное зеркало rutor. В случае если у Вас заблокирован rutor или вдруг Вы не можете на него зайти, то Вы без труда сможете скачать бесплатно и без рекламы последние новинки кино, игр, сериалов и прочего у нас, на Rutor.in. Не нужно использовать прокси, чтобы зайти на рутор, достаточно воспользоваться нашим ресурсом. Все новые фильмы, игры, сериалы, книги и музыка за 2013 и 2014 годы через торрент бесплатно. Скачивайте фильмы в хорошем качестве, игры для пк, xbox, playstation без регистрации. У нас вы найдете новые Зарубежные сериалы и Русские сериалы 2013, 2014, 2015 годов. Оставайтесь с нами, качайте любимые фильмы, игры, сериалы, книги и музыку.