img image001 image001 image001 image001 image001 image001 image001 image001 image001 image001 image001 image001 image001 image001 image001

Planets Sun Sun Sun
Статистика раздачи
Автор: Nickolas3434 | Размер: 7.73 ГБ | Добавлен: 12 окт 2015
Раздают: 101    Качают: 109
Скачать торрент
Скачать торрент
Описание торрента

СообщениеДобавлено: 12 окт 2015 



Информация о фильме
Название: Отбросы / Долбанутые / Плохие
Оригинальное название: Misfits
Год выхода: 2009
Жанр: Фантастика, фэнтези, драма, комедия
Режиссер: Том Грин, Джонатан ван Тюллекен, Том Харпер
В ролях: Роберт Шиэн, Иван Реон, Лорен Сока, Антония Томас, Натан Стюарт-Джарретт, Джозеф Гилган, Крэйг Паркинсон, Мэттью МакНалти, Алекс Рид, Рут Негга, Джессика Браун-Финдлэй, Дэнни Сапани, Майкл Обиора, Кехинде Фадипе, Гвинет Киворт, Эми Бет Хэйес, Карла Кроум, Нейтан МакМаллен, Мэтт Стокоу, Наташа О’Киффи, Анна Коваль, Джозеф Алтин, Майкл Маркус Морган, Мишель Фэйрли, Джейми Блэкли, Бен Смит, Кэтрин Стюарт, Декстер Флетчер, Луис Декоста Джонсон, Фил Дэниелс, Джо Стоун-Фьюингс, Роланд Маклеод, Роберт Файф, Клер Уэлш, Николас Барнс, Джэми Дэвис, Бунми Моджекву, Джек Бенс, Стивен Уайт, Перри Бенсон

О фильме:
Сериал повествует о буднях молодых нарушителей закона, которые отрабатывают на общественных работах. Но если бы все так было просто... Еще не так давно, во время грозы, некоторые жители города получили различные способности. От управления сыром до бессмертия. И по великой случайности, у всех, кто отрабатывает в общественном центре, есть способности. Это способности превращают простые будни во что-то намного веселее. Будь это сражение с зомби или же предотвращение какого-либо события, которое изменило бы весь мир.



Страна: Великобритания
Студия: Clerkenwell Films
Продолжительность: 37 x ~ 00:46:00 + 2 x 00:11:00
Перевод: Профессиональный (двухголосый) [Кубик в Кубе]

Файл
Формат: MP4
Качество: HDRip, WEB-DLRip | КПК
Видео: MPEG-4 AVC (x264), 640x360, ~500 kbps, 25.000 fps
Аудио: AAC LC, 48.0 KHz, 2 ch, 128 Kbps
Субтитры: Нет

Внимание! Сериал содержит ненормативную лексику и сцены сексуального характера. Не рекомендуется лицам младше 18-ти лет.

Семпл


Complete name : E:KinoPlohie.AVC.KPK.KvK.GeneralfilmPlohie.S04.2012.AVC.HDRip.KPK.KvK.GeneralfilmPlohie.s04e04.2012.AVC.HDRip.KPK.KvK.Generalfilm.mp4
Format : MPEG-4
Codec ID : M4V
File size : 211 MiB
Duration : 46mn 32s
Overall bit rate mode : Variable
Overall bit rate : 633 Kbps
Writing application : Lavf53.19.0

Video
ID : 1
Format : AVC
Format/Info : Advanced Video Codec
Format profile : High@L4.1
Format settings, CABAC : Yes
Format settings, ReFrames : 8 frames
Codec ID : avc1
Codec ID/Info : Advanced Video Coding
Duration : 46mn 31s
Bit rate : 500 Kbps
Width : 640 pixels
Height : 360 pixels
Display aspect ratio : 16:9
Frame rate mode : Constant
Frame rate : 25.000 fps
Color space : YUV
Chroma subsampling : 4:2:0
Bit depth : 8 bits
Scan type : Progressive
Bits/(Pixel*Frame) : 0.087
Stream size : 166 MiB (79%)
Writing library : x264 core 130 r2273 b3065e6
Encoding settings : cabac=1 / ref=8 / deblock=1:-1:-1 / analyse=0x3:0x133 / me=umh / subme=10 / psy=1 / psy_rd=1.00:0.00 / mixed_ref=1 / me_range=24 / chroma_me=1 / trellis=2 / 8x8dct=1 / cqm=0 / deadzone=21,11 / fast_pskip=1 / chroma_qp_offset=-2 / threads=3 / lookahead_threads=1 / sliced_threads=0 / nr=0 / decimate=1 / interlaced=0 / bluray_compat=0 / constrained_intra=0 / bframes=8 / b_pyramid=2 / b_adapt=2 / b_bias=0 / direct=3 / weightb=1 / open_gop=0 / weightp=2 / keyint=250 / keyint_min=126 / scenecut=40 / intra_refresh=0 / rc_lookahead=40 / rc=2pass / mbtree=1 / bitrate=500 / ratetol=1.0 / qcomp=0.60 / qpmin=0 / qpmax=69 / qpstep=4 / cplxblur=20.0 / qblur=0.5 / ip_ratio=1.40 / aq=1:1.00

Audio
ID : 2
Format : AAC
Format/Info : Advanced Audio Codec
Format profile : LC
Codec ID : 40
Duration : 46mn 32s
Bit rate mode : Variable
Bit rate : 128 Kbps
Channel(s) : 2 channels
Channel positions : Front: L R
Sampling rate : 48.0 KHz
Compression mode : Lossy
Stream size : 42.6 MiB (20%)

Релиз от:



   Похожие торренты   Торрент   Размер 
В этой теме нет новых непрочитанных сообщений. Отбросы / Долбанутые / Плохие / Misfits [S01] (2009) HDRip от Кубик в Кубе

431 | 45

4.6 ГБ

В этой теме нет новых непрочитанных сообщений. Отбросы / Долбанутые / Плохие / Misfits [S01] (2009) HDRip от New-Team | P2 | Кубик в кубе

3345 | 906

2.05 ГБ

В этой теме нет новых непрочитанных сообщений. Отбросы / Долбанутые / Плохие / Misfits [S01] (2009) HDRip от New-Team | P2 | Кубик в кубе

59 | 15

4.38 ГБ

В этой теме нет новых непрочитанных сообщений. Плохие / Отбросы / Misfits [S01-05] (2009-2013) BDRip | Кубик в кубе

225 | 217

18.58 ГБ

В этой теме нет новых непрочитанных сообщений. Отбросы / Долбанутые / Плохие / Misfits [S01-03] (2011) PDTVRip, WEB-DLRip, HDRip | Кубик в Кубе

13 | 15

11.79 ГБ

В этой теме нет новых непрочитанных сообщений. Отбросы / Долбанутые / Плохие / Misfits [S01-05] (2009-2013) HDTVRip | Кубик в Кубе

6662 | 4568

17.75 ГБ

В этой теме нет новых непрочитанных сообщений. Плохие / Отбросы / Misfits [S01-05] (2009-2013) BDRip 720p HEVC (x265) | Кубик в кубе

179 | 141

13.26 ГБ




Вы не можете начинать темы
Вы не можете отвечать на сообщения
Вы не можете редактировать свои сообщения
Вы не можете удалять свои сообщения
Вы не можете добавлять вложения

Перейти:  
Для Мосгорсуда, Роскомнадзора и рекламодателей: mosgorsud-torrent[собачка]yandex.ru
 Вход
ppkBB3cker v.2 © 2008-2014 @ PPK
[ Time : 0.029s | 15 Queries | GZIP : On ]

Торрент трекер RUTOR.IN, Не можете зайти на rutor.org? Какой новый адрес рутор? Какое зеркало рутор? Не работает rutor.org и зеркала? Тогда наш торрент специально для вас. Rutor.in неофициальное зеркало rutor. В случае если у Вас заблокирован rutor или вдруг Вы не можете на него зайти, то Вы без труда сможете скачать бесплатно и без рекламы последние новинки кино, игр, сериалов и прочего у нас, на Rutor.in. Не нужно использовать прокси, чтобы зайти на рутор, достаточно воспользоваться нашим ресурсом. Все новые фильмы, игры, сериалы, книги и музыка за 2013 и 2014 годы через торрент бесплатно. Скачивайте фильмы в хорошем качестве, игры для пк, xbox, playstation без регистрации. У нас вы найдете новые Зарубежные сериалы и Русские сериалы 2013, 2014, 2015 годов. Оставайтесь с нами, качайте любимые фильмы, игры, сериалы, книги и музыку.