img image001 image001 image001 image001 image001 image001 image001 image001 image001 image001 image001 image001 image001 image001 image001

Planets Sun Sun Sun
Статистика раздачи
Автор: Nickolas3434 | Размер: 1.76 ГБ | Добавлен: 12 окт 2015
Раздают: 480    Качают: 52
Скачать торрент
Скачать торрент
Описание торрента

СообщениеДобавлено: 12 окт 2015 



Информация о фильме
Название: Отпуск по ранению
Год выхода: 2015
Жанр: Боевик, остросюжетный фильм
Режиссер: Кирилл Капица
В ролях: Игорь Лифанов, Ирина Сотикова, Александра Никифорова, Алексей Федотов, Юлия Зоркина, Сергей Мурзин, Игорь Ключников, Сергей Воробьёв (IV), Андрей Бабенко, Михаил Сливников, Евгений Курилкин, Дмитрий Александров, Валерий Ибрагимов, Геша Меньшиков, Руслан Нанава, Оксана Базилевич, Леонид Майзель, Илья Савельев, Юрий Агейкин

О фильме:
Командир спецподразделения ГРУ майор Артем Говоров во время операции по освобождению заложников - пленных иностранных журналистов, контужен и ранен в ногу. После госпиталя он уезжает в отпуск на десять дней в свой родной городок, где из родственников после смерти матери, у него остался только двоюродный брат. За эти десять дней он спасет от бандитов девушку, поможет местной полиции обезвредить опасную банду отморозков и найдёт свою любовь.

Страна: Россия
Студия: Star Media
Продолжительность: ~00:44:00 серия
Перевод: Не требуется

Файл
Кодек: Xvid
Качество: SATRip
Видео: 720x448, 25fps, 1800kbps
Звук: 48 kHz, MPEG Layer 3, 2 ch, ~128.00 kbps avg


Общее
Полное имя : D:Otpusk.po.raneniyu.2014.SATRipOtpusk.po.raneniyu.01.2014.SATRip.avi
Формат : AVI
Формат/Информация : Audio Video Interleave
Размер файла : 609 Мбайт
Продолжительность : 43 м.
Общий поток : 1938 Кбит/сек
Программа кодирования : VirtualDubMod 1.5.10.3 | www.virtualdub-fr.org || (build 2550/release)
Библиотека кодирования : VirtualDub build 32507/release

Видео
Идентификатор : 0
Формат : MPEG-4 Visual
Профиль формата : Advanced Simple@L5
Параметр BVOP формата : 2
Параметр QPel формата : Нет
Параметр GMC формата : Без точки перехода
Параметр матрицы формата : Default (MPEG)
Идентификатор кодека : XVID
Идентификатор кодека/Подсказка : XviD
Продолжительность : 43 м.
Битрейт : 1800 Кбит/сек
Ширина : 720 пикселей
Высота : 448 пикселей
Соотношение сторон : 16:10
Частота кадров : 25,000 кадров/сек
Цветовое пространство : YUV
Субдискретизация насыщенности : 4:2:0
Битовая глубина : 8 бит
Тип развёртки : Прогрессивная
Метод сжатия : С потерями
Бит/(Пиксели*Кадры) : 0.223
Размер потока : 566 Мбайт (93%)
Библиотека кодирования : XviD 1.2.1 (UTC 2008-12-04)

Аудио
Идентификатор : 1
Формат : MPEG Audio
Версия формата : Version 1
Профиль формата : Layer 3
Режим : Joint stereo
Расширение режима : MS Stereo
Идентификатор кодека : 55
Идентификатор кодека/Подсказка : MP3
Продолжительность : 43 м.
Вид битрейта : Постоянный
Битрейт : 128 Кбит/сек
Каналы : 2 канала
Частота : 48,0 КГц
Метод сжатия : С потерями
Размер потока : 40,3 Мбайт (7%)
Выравнивание : Соединение по промежуткам
Продолжительность промежутка : 40 мс. (1,00 видеокадр)
Время предзагрузки промежутка : 504 мс.
Библиотека кодирования : LAME3.99r
Настройки программы : -m j -V 4 -q 2 -lowpass 17 -b 128



Релиз от:



   Похожие торренты   Торрент   Размер 
В этой теме нет новых непрочитанных сообщений. Отпуск по ранению [01-04 из 04] (2015) HDTVRip-AVC от Files-x

1400 | 198

2.69 ГБ

В этой теме нет новых непрочитанных сообщений. Отпуск по ранению [01-04 из 04] (2015) HDTVRip от Files-х

5064 | 1510

2.15 ГБ

В этой теме нет новых непрочитанных сообщений. Отпуск по ранению [01-04 из 04] (2014) HDTVRip 720p от MediaClub

352 | 215

7.39 ГБ

В этой теме нет новых непрочитанных сообщений. Отпуск по ранению [01-04 из 04] (2014) HDTV 1080i от MediaClub

297 | 77

8.94 ГБ

В этой теме нет новых непрочитанных сообщений. Отпуск / Начальник (2012) SATRip

97 | 6

1.29 ГБ

В этой теме нет новых непрочитанных сообщений. Отпуск / Начальник (2012) SATRip

24 | 3

702.83 МБ

В этой теме нет новых непрочитанных сообщений. Его отпуск (1981) SATRip от AND01AND

39 | 3

1.36 ГБ




Вы не можете начинать темы
Вы не можете отвечать на сообщения
Вы не можете редактировать свои сообщения
Вы не можете удалять свои сообщения
Вы не можете добавлять вложения

Перейти:  
Для Мосгорсуда, Роскомнадзора и рекламодателей: mosgorsud-torrent[собачка]yandex.ru
 Вход
ppkBB3cker v.2 © 2008-2014 @ PPK
[ Time : 0.048s | 15 Queries | GZIP : Off ]

Торрент трекер RUTOR.IN, Не можете зайти на rutor.org? Какой новый адрес рутор? Какое зеркало рутор? Не работает rutor.org и зеркала? Тогда наш торрент специально для вас. Rutor.in неофициальное зеркало rutor. В случае если у Вас заблокирован rutor или вдруг Вы не можете на него зайти, то Вы без труда сможете скачать бесплатно и без рекламы последние новинки кино, игр, сериалов и прочего у нас, на Rutor.in. Не нужно использовать прокси, чтобы зайти на рутор, достаточно воспользоваться нашим ресурсом. Все новые фильмы, игры, сериалы, книги и музыка за 2013 и 2014 годы через торрент бесплатно. Скачивайте фильмы в хорошем качестве, игры для пк, xbox, playstation без регистрации. У нас вы найдете новые Зарубежные сериалы и Русские сериалы 2013, 2014, 2015 годов. Оставайтесь с нами, качайте любимые фильмы, игры, сериалы, книги и музыку.