img image001 image001 image001 image001 image001 image001 image001 image001 image001 image001 image001 image001 image001 image001 image001

Planets Sun Sun Sun
Статистика раздачи
Автор: Nickolas3434 | Размер: 1.86 ГБ | Добавлен: 12 окт 2015
Раздают: 188    Качают: 130
Скачать торрент
Скачать торрент
Описание торрента

СообщениеДобавлено: 12 окт 2015 

Теория Большого Взрыва / The Big Bang Theory


Название: Теория Большого ВзрываОригинальное название: The Big Bang Theory
Год выхода: 2015
Жанр: Ситком, комедия



Режиссер: Марк Сендроуски, Питер Чакос, Энтони Джозеф Рич

В ролях: Джонни Галэки, Джим Парсонс, Кейли Куоко, Саймон Хелберг, Кунал Найяр, Майем Биалик, Мелисса Рауш, Кевин Суссман, Лора Спенсер, Джон Росс Боуи, Лори Меткаф



О фильме:
Теория большого взрыва – это умопомрачительная и веселая история, которая притягивает к экранам огромную аудиторию зрителей. Главные герои – гениальные молодые люди, которые отлично разбираются во всем, что связано с наукой и знают, «как работает вселенная». Но все это не мешает им быть робкими мальчиками, как только дело доходит до отношений с противоположным полом. Да что там отношений, даже разговоры с женщинами даются им иногда с большим трудом! Есть и еще один положительный момент на чаше весов «ЗА» просмотр ТБВ: в переводе от Кураж Бомбей – это очень смешно. Наверняка в этом переводе вы найдете множество фраз, которые впоследствии станут вашими повседневными цитатами. Например, ставшие классикой восклицания «Бугагашенька» или «Святая корова!». Или ласковое и доброе «бабуленька», которое вы сможете говорить вашим соседкам по утрам и множество других, не менее интересных выражений.







Страна: США, Chuck Lorre Productions, Warner Bros. Television
Продолжительность: 3 x ~ 00:20:00
Перевод: Профессиональный одноголосый (Кураж-Бамбей)



Качество: WEB-DL 720p
Видео: MPEG-4 AVC, ~ 4000 Кбит/с, 1280x718
Звук: Русский (AC3, 2 ch, 192 Кбит/с), английский (AC3, 6 ch, 384 Кбит/с)
Субтитры: Русские, английские



Общее
Уникальный идентификатор : 235782139098850635137200909226353442260 (0xB161FCFAF39271ED944F64926A493DD4)
Полное имя : E:SerialsTorrentsTBBT_S09_KBTBBT.S09E01.WEB-DL.720p.mkv
Формат : Matroska
Версия формата : Version 4 / Version 2
Размер файла : 665 Мбайт
Продолжительность : 20 м.
Общий поток : 4561 Кбит/сек
Дата кодирования : UTC 2015-09-25 18:22:08
Программа кодирования : mkvmerge v8.4.0 ('A better way to fly') 64bit
Библиотека кодирования : libebml v1.3.1 + libmatroska v1.4.2
DURATION : 00:19:50.454000000
NUMBER_OF_FRAMES : 443
NUMBER_OF_BYTES : 13370
_STATISTICS_WRITING_APP : mkvmerge v8.4.0 ('A better way to fly') 64bit
_STATISTICS_WRITING_DATE_UTC : 2015-09-25 18:22:08
_STATISTICS_TAGS : BPS DURATION NUMBER_OF_FRAMES NUMBER_OF_BYTES

Видео
Идентификатор : 1
Формат : AVC
Формат/Информация : Advanced Video Codec
Профиль формата : High@L3.1
Параметр CABAC формата : Нет
Параметр ReFrames формата : 2 кадра
Идентификатор кодека : V_MPEG4/ISO/AVC
Продолжительность : 20 м.
Битрейт : 3894 Кбит/сек
Ширина : 1280 пикселей
Высота : 718 пикселей
Соотношение сторон : 16:9
Режим частоты кадров : Постоянный
Частота кадров : 23,976 кадра/сек
Цветовое пространство : YUV
Субдискретизация насыщенности : 4:2:0
Битовая глубина : 8 бит
Тип развёртки : Прогрессивная
Бит/(Пиксели*Кадры) : 0.177
Размер потока : 568 Мбайт (85%)
Язык : English
Default : Да
Forced : Нет
Цветовой диапазон : Limited
Основные цвета : BT.709
Характеристики трансфера : BT.709
Коэффициенты матрицы : BT.709

Аудио #1
Идентификатор : 2
Формат : AC-3
Формат/Информация : Audio Coding 3
Расширение режима : CM (complete main)
Параметр Endianness формата : Big
Идентификатор кодека : A_AC3
Продолжительность : 20 м.
Вид битрейта : Постоянный
Битрейт : 192 Кбит/сек
Каналы : 2 канала
Расположение каналов : Front: L R
Частота : 48,0 КГц
Метод сжатия : С потерями
Размер потока : 28,0 Мбайт (4%)
Заголовок : Kuraj-Bambey
Язык : Russian
Default : Да
Forced : Нет

Аудио #2
Идентификатор : 3
Формат : AC-3
Формат/Информация : Audio Coding 3
Расширение режима : CM (complete main)
Параметр Endianness формата : Big
Идентификатор кодека : A_AC3
Продолжительность : 20 м.
Вид битрейта : Постоянный
Битрейт : 384 Кбит/сек
Каналы : 6 каналов
Расположение каналов : Front: L C R, Side: L R, LFE
Частота : 48,0 КГц
Метод сжатия : С потерями
Размер потока : 56,0 Мбайт (8%)
Язык : English
Default : Нет
Forced : Нет

Текст #1
Идентификатор : 4
Формат : UTF-8
Идентификатор кодека : S_TEXT/UTF8
Идентификатор кодека/Информация : UTF-8 Plain Text
Заголовок : Notabenoid
Язык : Russian
Default : Нет
Forced : Нет

Текст #2
Идентификатор : 5
Формат : UTF-8
Идентификатор кодека : S_TEXT/UTF8
Идентификатор кодека/Информация : UTF-8 Plain Text
Заголовок : Addic7ed
Язык : English
Default : Нет
Forced : Нет



   Похожие торренты   Торрент   Размер 
В этой теме нет новых непрочитанных сообщений. Теория Большого Взрыва / The Big Bang Theory [09x01 из 24] (2015) WEB-DL 720p | Кураж-Бамбей

723 | 16

664.8 МБ

В этой теме нет новых непрочитанных сообщений. Теория Большого Взрыва / The Big Bang Theory [09x01-12 из 24] (2015) WEB-DL 720p | Кураж-Бамбей

277 | 498

7.47 ГБ

В этой теме нет новых непрочитанных сообщений. Теория большого взрыва / The Big Bang Theory [S01-09x01-186 из 207] (2007-2015) HDTVRip | Кураж-Бамбей

7 | 30

50.31 ГБ

В этой теме нет новых непрочитанных сообщений. Теория Большого Взрыва / The Big Bang Theory [08x01-16 из 24] (2014-2015) WEB-DL 720p | Кураж-Бамбей

168 | 243

10.45 ГБ

В этой теме нет новых непрочитанных сообщений. Теория Большого Взрыва / The Big Bang Theory [09х01-03 из 24] (2015) HDTVRip 720p от qqss44 | Кураж-Бамбей

740 | 882

1.38 ГБ

В этой теме нет новых непрочитанных сообщений. Теория Большого Взрыва / The Big Bang Theory [09х01-12 из 24] (2015) HDTVRip 720p от qqss44 | Кураж-Бамбей

298 | 933

5.44 ГБ

В этой теме нет новых непрочитанных сообщений. Теория Большого Взрыва / The Big Bang Theory [09х01 из 24] (2015) HDTVRip 720p от qqss44 | Кураж-Бамбей

343 | 12

460.68 МБ




Вы не можете начинать темы
Вы не можете отвечать на сообщения
Вы не можете редактировать свои сообщения
Вы не можете удалять свои сообщения
Вы не можете добавлять вложения

Перейти:  
Для Мосгорсуда, Роскомнадзора и рекламодателей: mosgorsud-torrent[собачка]yandex.ru
 Вход
ppkBB3cker v.2 © 2008-2014 @ PPK
[ Time : 0.050s | 16 Queries | GZIP : Off ]

cron