img image001 image001 image001 image001 image001 image001 image001 image001 image001 image001 image001 image001 image001 image001 image001

Planets Sun Sun Sun
Статистика раздачи
Автор: Nickolas3434 | Размер: 4.35 ГБ | Добавлен: 18 окт 2015
Раздают: 1396    Качают: 221
Скачать торрент
Скачать торрент
Описание торрента

СообщениеДобавлено: 18 окт 2015 


Информация о фильме
Название: Культ
Год выхода: 2015
Жанр: Драма, приключения
Режиссёр: Алёна Семёнова
В ролях: Дмитрий Марьянов, Татьяна Арнтгольц, Артур Сопельник, Дмитрий Бикбаев, Константин Крюков, Андрей Зибров, Алина Сергеева, Артур Бесчастный, Валерий Николаев, Анастасия Клименко
О фильме: Группа молодых россиян становится послушниками секты «Моментум», базирующейся в небольшой латиноамериканской стране Вендора. Родственники ребят, стремясь уберечь детей от неминуемой смерти, нанимают профессионального военного. Полностью доверившись ему, прибывают в Вендору. Однако вскоре становится ясно, что у нанятого профессионала есть свои интересы в этой опасной стране…
Страна: Украина
Студия: Star Media
Продолжительность: ~ 00:44:00 серия
Перевод: Не требуется[Русский]
Файл
Кодек: XviD
Качество: WEB-DLRip
Видео: ~ 1100 Кбит/с, 688x384, 25 fps
Звук: MP3, 2 ch, 128 Кбит/с, 44.1 kHz
Общее
Полное имя : Kuljt.(12.seriy.iz.12).2015.WEB-DLRip.by.GeneralFilmSerija.02.avi
Формат : AVI
Формат/Информация : Audio Video Interleave
Размер файла : 371 Мбайт
Продолжительность : 41 м.
Общий поток : 1239 Кбит/сек
Программа кодирования : VirtualDubMod 1.5.10.3 | www.virtualdub-fr.org || (build 2550/release)
Библиотека кодирования : VirtualDubMod build 2550/release
Видео
Идентификатор : 0
Формат : MPEG-4 Visual
Профиль формата : Advanced Simple@L5
Параметр BVOP формата : 1
Параметр QPel формата : Нет
Параметр GMC формата : Без точки перехода
Параметр матрицы формата : Выборочная
Идентификатор кодека : XVID
Идентификатор кодека/Подсказка : XviD
Продолжительность : 41 м.
Битрейт : 1101 Кбит/сек
Ширина : 688 пикселей
Высота : 384 пикселя
Соотношение сторон : 16:9
Частота кадров : 25,000 кадров/сек
Цветовое пространство : YUV
Субдискретизация насыщенности : 4:2:0
Битовая глубина : 8 бит
Тип развёртки : Прогрессивная
Метод сжатия : С потерями
Бит/(Пиксели*Кадры) : 0.167
Размер потока : 330 Мбайт (89%)
Библиотека кодирования : XviD 73
Аудио
Идентификатор : 1
Формат : MPEG Audio
Версия формата : Version 1
Профиль формата : Layer 3
Идентификатор кодека : 55
Идентификатор кодека/Подсказка : MP3
Продолжительность : 41 м.
Вид битрейта : Постоянный
Битрейт : 128 Кбит/сек
Каналы : 2 канала
Частота : 44,1 КГц
Метод сжатия : С потерями
Размер потока : 38,4 Мбайт (10%)
Выравнивание : Разделение по промежуткам
Продолжительность промежутка : 40 мс. (1,00 видеокадр)
Время предзагрузки промежутка : 500 мс.
Библиотека кодирования : LAME3.99r
Настройки программы : -m s -V 4 -q 0 -lowpass 17 -b 128










Релиз от:



   Похожие торренты   Торрент   Размер 
В этой теме нет новых непрочитанных сообщений. Культ [01х01 из 12] (2015) WEB-DLRip от Files-x

179 | 75

4.84 ГБ

В этой теме нет новых непрочитанных сообщений. Культ [01х01-03 из 12] (2015) WEB-DLRip от Files-x

789 | 140

1.61 ГБ

В этой теме нет новых непрочитанных сообщений. Культ [01х01-09 из 12] (2015) WEB-DLRip-AVC от Files-x

99 | 43

6.33 ГБ

В этой теме нет новых непрочитанных сообщений. Культ [01х01-03 из 12] (2015) DVB от Files-x

79 | 28

3.26 ГБ

В этой теме нет новых непрочитанных сообщений. Культ [01х01-03 из 12] (2015) DVB от Files-x

41 | 35

9.75 ГБ

В этой теме нет новых непрочитанных сообщений. Культ [01х01-03 из 12] (2015) WEB-DL 720p от Files-x

148 | 27

1.89 ГБ

В этой теме нет новых непрочитанных сообщений. Культ [01х01-02 из 12] (2015) SATRip-AVC от Files-x

24 | 1

1.13 ГБ




Вы не можете начинать темы
Вы не можете отвечать на сообщения
Вы не можете редактировать свои сообщения
Вы не можете удалять свои сообщения
Вы не можете добавлять вложения

Перейти:  
Для Мосгорсуда, Роскомнадзора и рекламодателей: mosgorsud-torrent[собачка]yandex.ru
 Вход
ppkBB3cker v.2 © 2008-2014 @ PPK
[ Time : 0.065s | 14 Queries | GZIP : Off ]

Торрент трекер RUTOR.IN, Не можете зайти на rutor.org? Какой новый адрес рутор? Какое зеркало рутор? Не работает rutor.org и зеркала? Тогда наш торрент специально для вас. Rutor.in неофициальное зеркало rutor. В случае если у Вас заблокирован rutor или вдруг Вы не можете на него зайти, то Вы без труда сможете скачать бесплатно и без рекламы последние новинки кино, игр, сериалов и прочего у нас, на Rutor.in. Не нужно использовать прокси, чтобы зайти на рутор, достаточно воспользоваться нашим ресурсом. Все новые фильмы, игры, сериалы, книги и музыка за 2013 и 2014 годы через торрент бесплатно. Скачивайте фильмы в хорошем качестве, игры для пк, xbox, playstation без регистрации. У нас вы найдете новые Зарубежные сериалы и Русские сериалы 2013, 2014, 2015 годов. Оставайтесь с нами, качайте любимые фильмы, игры, сериалы, книги и музыку.