img image001 image001 image001 image001 image001 image001 image001 image001 image001 image001 image001 image001 image001 image001 image001

Planets Sun Sun Sun
Статистика раздачи
Автор: Nickolas3434 | Размер: 2.73 ГБ | Добавлен: 18 окт 2015
Раздают: 2732    Качают: 397
Скачать торрент
Скачать торрент
Описание торрента

СообщениеДобавлено: 18 окт 2015 


Информация о фильме
Название: Шанс
Год выхода: 2015
Жанр: Мелодрама
Режиссер: Валерий Девятилов
В ролях: Полина Стрельникова (Сыркина), Владимир Колганов, Елена Сафонова, Екатерина Соломатина, Игорь Фурманюк, Екатерина Симаходская, Дмитрий Гудочкин, Валерий Девятилов, Людмила Гамуряк
О фильме: Жизнь не балует Женю Соколову. Как многие девчонки из деревни, она приехала покорять Москву, а вскоре оказалась беременной и брошенной на произвол судьбы. Женя уже готова вернуться домой, но судьба уготовила ей страшное испытание. Героиня оказывается втянутой в криминальную историю. Бандиты начинают охоту на Женю, и девушка вынуждена бежать куда глаза глядят, спасая себя и своего будущего ребенка.
Выпущено: Россия, к/к Русское
Продолжительность: 2 x ~ 01:30:00
Перевод: Не требуется
Сэмпл
Файл
Качество: HDTVRip
Видео: XviD, ~ 1920 Кбит/с, 720х400
Аудио: AC3, 2 ch, 192 Кбит/с
[br]
General
Complete name : Y:раздачиШанс.2015.HDTVRip.RG.Russkie.serialy.&.Files-x\01.Шанс.2015.HDTVRip.RG.Russkie.serialy.&.Files-x.avi
Format : AVI
Format/Info : Audio Video Interleave
File size : 1.37 GiB
Duration : 1h 30mn
Overall bit rate : 2 155 Kbps
Writing application : VirtualDubMod 1.5.10.3 | www.virtualdub-fr.org || (build 2550/release)
Writing library : VirtualDubMod build 2550/release
Video
ID : 0
Format : MPEG-4 Visual
Format profile : Advanced Simple@L5
Format settings, BVOP : 1
Format settings, QPel : No
Format settings, GMC : No warppoints
Format settings, Matrix : Custom
Codec ID : XVID
Codec ID/Hint : XviD
Duration : 1h 30mn
Bit rate : 1 954 Kbps
Width : 720 pixels
Height : 400 pixels
Display aspect ratio : 16:9
Frame rate : 25.000 fps
Color space : YUV
Chroma subsampling : 4:2:0
Bit depth : 8 bits
Scan type : Progressive
Compression mode : Lossy
Bits/(Pixel*Frame) : 0.271
Stream size : 1.24 GiB (91%)
Writing library : XviD 73
Audio
ID : 1
Format : AC-3
Format/Info : Audio Coding 3
Mode extension : CM (complete main)
Format settings, Endianness : Big
Codec ID : 2000
Duration : 1h 30mn
Bit rate mode : Constant
Bit rate : 192 Kbps
Channel(s) : 2 channels
Channel positions : Front: L R
Sampling rate : 48.0 KHz
Compression mode : Lossy
Stream size : 125 MiB (9%)
Alignment : Split accross interleaves
Interleave, duration : 40 ms (1.00 video frame)
Interleave, preload duratio : 500 ms



Релиз от:



   Похожие торренты   Торрент   Размер 
В этой теме нет новых непрочитанных сообщений. Шанс [01-02 из 02] (2015) HDTVRip-AVC от Files-x

1192 | 281

2.77 ГБ

В этой теме нет новых непрочитанных сообщений. Счастливый шанс [01-02 из 02] (2014) HDTVRip от Generalfilm-Files-x

100 | 35

2.73 ГБ

В этой теме нет новых непрочитанных сообщений. Шанс [01-04 из 04] (2015) WEB-DLRip-AVC от Files-x

975 | 169

2.56 ГБ

В этой теме нет новых непрочитанных сообщений. Шанс [01-02 из 02] (2015) HDTVRip от MediaClub | КПК

368 | 52

824.73 МБ

В этой теме нет новых непрочитанных сообщений. Шанс [01-02 из 02] (2015) HDTVRip от Шкипер

455 | 37

1.46 ГБ

В этой теме нет новых непрочитанных сообщений. Шанс [01-02 из 02] (2015) HDTVRip 720p от MediaClub

220 | 46

7.38 ГБ

В этой теме нет новых непрочитанных сообщений. Второй шанс / Second Chance [01х01 из 13] (2015) HDTVRip 720p | NewStudio

104 | 6

1.64 ГБ




Вы не можете начинать темы
Вы не можете отвечать на сообщения
Вы не можете редактировать свои сообщения
Вы не можете удалять свои сообщения
Вы не можете добавлять вложения

Перейти:  
Для Мосгорсуда, Роскомнадзора и рекламодателей: mosgorsud-torrent[собачка]yandex.ru
 Вход
ppkBB3cker v.2 © 2008-2014 @ PPK
[ Time : 0.168s | 15 Queries | GZIP : Off ]

cron