img image001 image001 image001 image001 image001 image001 image001 image001 image001 image001 image001 image001 image001 image001 image001

Planets Sun Sun Sun
Статистика раздачи
Автор: Nickolas3434 | Размер: 554.94 МБ | Добавлен: 19 окт 2015, 18:38
Раздают: 2    Качают: 0
Скачать торрент
Скачать торрент
Описание торрента

СообщениеДобавлено: 19 окт 2015, 18:38 


Информация о фильме
Название: Паук (Гознак)
Год выхода: 2015
Жанр: Детектив, криминал, триллер
Режиссер: Евгений Звездаков
В ролях: Андрей Смоляков, Марина Александрова, Юрий Чурсин, Константин Демидов, Владимир Вольнов, Леся Кудряшова, Вячеслав Митягин, Ярослава Базаева, Александра Ревенко, Владимир Юматов.
О фильме:
На дворе 1967 год, в городе складывается тяжелая обстановка, а все из-за того, что на границах памятника отца революции найдены трупы манекенщиц.
Страна: Россия
Продолжительность: 1 х ~ 00:50:00
Язык: Русский
Файл
Качество: WEB-DLRip
Видео: XviD, ~ 1350 Кбит/с, 704x400
Аудио: MP3, 2 ch, 128 Кбит/с
Общее
Полное имя : Pauk.(08.serij.iz.08).2015.XviD.WEB-DLRip.by.GeneralFilmSerija.01.avi
Формат : AVI
Формат/Информация : Audio Video Interleave
Размер файла : 555 Мбайт
Продолжительность : 52 м.
Общий поток : 1489 Кбит/сек
Программа кодирования : VirtualDubMod 1.5.10.3 | www.virtualdub-fr.org || (build 2550/release)
Библиотека кодирования : VirtualDubMod build 2550/release
Видео
Идентификатор : 0
Формат : MPEG-4 Visual
Профиль формата : Advanced Simple@L5
Параметр BVOP формата : 1
Параметр QPel формата : Нет
Параметр GMC формата : Без точки перехода
Параметр матрицы формата : Выборочная
Идентификатор кодека : XVID
Идентификатор кодека/Подсказка : XviD
Продолжительность : 52 м.
Битрейт : 1352 Кбит/сек
Ширина : 704 пикселя
Высота : 400 пикселей
Соотношение сторон : 16:9
Частота кадров : 25,000 кадров/сек
Цветовое пространство : YUV
Субдискретизация насыщенности : 4:2:0
Битовая глубина : 8 бит
Тип развёртки : Прогрессивная
Метод сжатия : С потерями
Бит/(Пиксели*Кадры) : 0.192
Размер потока : 504 Мбайт (91%)
Библиотека кодирования : XviD 73
Аудио
Идентификатор : 1
Формат : MPEG Audio
Версия формата : Version 1
Профиль формата : Layer 3
Идентификатор кодека : 55
Идентификатор кодека/Подсказка : MP3
Продолжительность : 52 м.
Вид битрейта : Постоянный
Битрейт : 128 Кбит/сек
Каналы : 2 канала
Частота : 48,0 КГц
Метод сжатия : С потерями
Размер потока : 47,7 Мбайт (9%)
Выравнивание : Соединение по промежуткам
Продолжительность промежутка : 40 мс. (1,00 видеокадр)
Время предзагрузки промежутка : 504 мс.
Библиотека кодирования : LAME3.99r
Настройки программы : -m s -V 4 -q 0 -lowpass 17 -b 128








Релиз от:



   Похожие торренты   Торрент   Размер 
В этой теме нет новых непрочитанных сообщений. Паук [01-05 из 08] (2015) WEB-DLRip от GeneralFilm

43 | 27

2.71 ГБ

В этой теме нет новых непрочитанных сообщений. Паук [01-08 из 08] (2015) WEB-DLRip от GeneralFilm

1755 | 320

4.34 ГБ

В этой теме нет новых непрочитанных сообщений. Паук [01-03 из 08] (2015) WEB-DLRip от GeneralFilm

21 | 9

1.63 ГБ

В этой теме нет новых непрочитанных сообщений. Паук [01-02 из 08] (2015) HDTVRip от GeneralFilm

337 | 28

1.42 ГБ

В этой теме нет новых непрочитанных сообщений. Паук [01-02 из 08] (2015) HDTVRip от GeneralFilm

573 | 220

4.26 ГБ

В этой теме нет новых непрочитанных сообщений. Паук [01-02 из 08] (2015) HDTV 1080i от GeneralFilm

118 | 59

21.44 ГБ

В этой теме нет новых непрочитанных сообщений. Паук [01-02 из 08] (2015) HDTV 1080i от GeneralFilm

119 | 22

14.02 ГБ




Вы не можете начинать темы
Вы не можете отвечать на сообщения
Вы не можете редактировать свои сообщения
Вы не можете удалять свои сообщения
Вы не можете добавлять вложения

Перейти:  
Для Мосгорсуда, Роскомнадзора и рекламодателей: mosgorsud-torrent[собачка]yandex.ru
Настройки
ppkBB3cker v.2 © 2008-2014 @ PPK
[ Time : 0.508s | 16 Queries | GZIP : Off ]
CGP [Extreme] output time : 0.00069s | 0 Queries | GZIP : Off

Торрент трекер RUTOR.IN, Не можете зайти на rutor.org? Какой новый адрес рутор? Какое зеркало рутор? Не работает rutor.org и зеркала? Тогда наш торрент специально для вас. Rutor.in неофициальное зеркало rutor. В случае если у Вас заблокирован rutor или вдруг Вы не можете на него зайти, то Вы без труда сможете скачать бесплатно и без рекламы последние новинки кино, игр, сериалов и прочего у нас, на Rutor.in. Не нужно использовать прокси, чтобы зайти на рутор, достаточно воспользоваться нашим ресурсом. Все новые фильмы, игры, сериалы, книги и музыка за 2013 и 2014 годы через торрент бесплатно. Скачивайте фильмы в хорошем качестве, игры для пк, xbox, playstation без регистрации. У нас вы найдете новые Зарубежные сериалы и Русские сериалы 2013, 2014, 2015 годов. Оставайтесь с нами, качайте любимые фильмы, игры, сериалы, книги и музыку.