img image001 image001 image001 image001 image001 image001 image001 image001 image001 image001 image001 image001 image001 image001 image001

Planets Sun Sun Sun
Статистика раздачи
Автор: Nickolas3434 | Размер: 1.99 ГБ | Добавлен: 21 окт 2015
Раздают: 27    Качают: 3
Скачать торрент
Скачать торрент
Описание торрента

СообщениеДобавлено: 21 окт 2015 

Гознак



Год выпуска: 2015
Страна: Россия
Студия: Красный квадрат, Студия Русский Проект
Жанр: драма, история
Продолжительность: 8 серий ~ по 50 мин.
Перевод: не требуется
Субтитры: нет
Оригинальная аудиодорожка: русский
Режиссер: Евгений Звездаков
В ролях:
Андрей Смоляков, Марина Александрова, Сергей Угрюмов, Сергей Годин, Марк Богатырёв, Каролина Грушка, Родион Нахапетов, Андрис Лиелайс, Юрий Тарасов, Вадим Андреев, Алексей Бардуков, Владимир Юматов, Даниэла Стоянович, Александр Дробитько, Юрий Чурсин, Галина Шевякова, Григорий Калинин, Дмитрий Астрахан, Екатерина Волкова, Анна Легчилова, Анастасия Фурса, Иван Волков, Филипп Гуревич, Елизавета Зарубина, Луиза Мосендз, Денис Курочка, Ольга Лапшина, Софья Синицына, Александр Молочников, Марина Петренко, Роман Индык, Петар Зекавица, Игорь Филиппов, Вячеслав Жолобов, Радик Мухаметзянов, Константин Демидов...
Полный список актёров
Описание:
Третий фильм проекта об опергруппе Черкасова - «Гознак».
По мотивам еще одной знаменитой истории - ограблении Госбанка Армянской ССР в 1977 году, когда братья Калачян обнесли казну на полтора миллиона рублей (два миллиона долларов по тогдашнему курсу). Это было самое крупное похищение в Советском Союзе.
1967 год. Москва. Убита манекенщица из Дома моды. На место преступления приезжает группа майора Черкасова. Он срочным порядком внедряет в Дом моды своего человека – Соню Тимофееву, главной задачей которой является получение информации об отношениях между работниками Домы моды. Вскоре погибает еще одна манекенщица. И одновременно с этим убийством происходит очень дерзкое преступление - ограбление Гознака...





Исходник: HDTV 1080i
Качество видео: HDTVRip-AVC
Формат видео: MKV
Видео: 1024х576 (16:9), 25 fps, H264 ~ 2400 kbps avg, 0.163 bit/pixel
Аудио: 48 kHz, Dolby Digital AC3 5.1, 384 kbps
Общее
Полное имя : Pauk.2015.HDTVRip-AVC_[New-team]_by_AVP_Studio1.mkv
Формат : Matroska
Версия формата : Version 2
Размер файла : 1,01 Гбайт
Продолжительность : 51 м.
Общий поток : 2786 Кбит/сек
Дата кодирования : UTC 2015-10-20 09:32:13
Программа кодирования : mkvmerge v6.1.0 ('Old Devil') built on Mar 4 2013 09:10:42
Библиотека кодирования : libebml v1.3.0 + libmatroska v1.4.0
Видео
Идентификатор : 1
Формат : AVC
Формат/Информация : Advanced Video Codec
Профиль формата : High@L4.1
Параметр CABAC формата : Да
Параметр ReFrames формата : 10 кадров
Идентификатор кодека : V_MPEG4/ISO/AVC
Продолжительность : 51 м.
Битрейт : 2400 Кбит/сек
Ширина : 1024 пикселя
Высота : 576 пикселей
Соотношение сторон : 16:9
Режим частоты кадров : Постоянный
Частота кадров : 25,000 кадров/сек
Цветовое пространство : YUV
Субдискретизация насыщенности : 4:2:0
Битовая глубина : 8 бит
Тип развёртки : Прогрессивная
Бит/(Пиксели*Кадры) : 0.163
Размер потока : 870 Мбайт (84%)
Библиотека кодирования : x264 core 148 r2597 e86f3a1
Настройки программы : cabac=1 / ref=10 / deblock=1:-3:-2 / analyse=0x3:0x113 / me=umh / subme=10 / psy=1 / psy_rd=1.00:0.00 / mixed_ref=1 / me_range=32 / chroma_me=1 / trellis=2 / 8x8dct=1 / cqm=0 / deadzone=21,11 / fast_pskip=1 / chroma_qp_offset=-2 / threads=6 / lookahead_threads=1 / sliced_threads=0 / nr=0 / decimate=0 / interlaced=0 / bluray_compat=0 / constrained_intra=0 / bframes=8 / b_pyramid=2 / b_adapt=2 / b_bias=0 / direct=3 / weightb=1 / open_gop=0 / weightp=2 / keyint=250 / keyint_min=25 / scenecut=40 / intra_refresh=0 / rc_lookahead=40 / rc=2pass / mbtree=1 / bitrate=2400 / ratetol=1.0 / qcomp=0.60 / qpmin=0 / qpmax=69 / qpstep=4 / cplxblur=20.0 / qblur=0.5 / ip_ratio=1.40 / aq=1:1.00
Default : Да
Forced : Нет
Аудио
Идентификатор : 2
Формат : AC-3
Формат/Информация : Audio Coding 3
Расширение режима : CM (complete main)
Параметр Endianness формата : Big
Идентификатор кодека : A_AC3
Продолжительность : 51 м.
Вид битрейта : Постоянный
Битрейт : 384 Кбит/сек
Каналы : 6 каналов
Расположение каналов : Front: L C R, Side: L R, LFE
Частота : 48,0 КГц
Метод сжатия : С потерями
Размер потока : 142 Мбайт (14%)
Default : Да
Forced : Нет



При каждом добавлении создаётся новый торрент. Чтобы начать докачку нового выпуска, пользователям необходимо сделать следующее:
● остановить скачивание;
● удалить старый торрент у себя из клиента (старые серии удалять не надо);
● скачать новый торрент и запустить его у себя в клиенте вместо старого, при этом указать клиенту путь в старую папку куда и должно происходить скачивание новых серий;
● ваш клиент при запуске должен произвести хеширование (проверку) старой папки (если не производит сам - помогите ему сделать это), и будет докачивать только те серии, которых у вас ещё нет. Старые серии при этом не удаляются, а продолжают раздаваться!
● Eсли вы уже удалили старые серии, то предотвратить повторную закачку старых выпусков можно, отжав галочку в соответсвующих местах при запуске нового торрента.



   Похожие торренты   Торрент   Размер 
В этой теме нет новых непрочитанных сообщений. Паук [01-02 из 08] (2015) HDTVRip-AVC от New-Team

404 | 90

7.93 ГБ

В этой теме нет новых непрочитанных сообщений. Паук [01-02 из 08] (2015) HDTVRip-AVC от New-Team

9 | 74

5.95 ГБ

В этой теме нет новых непрочитанных сообщений. Паук [01-02 из 08] (2015) HDTVRip 720p от New-Team

37 | 4

9.79 ГБ

В этой теме нет новых непрочитанных сообщений. Паук [01-02 из 08] (2015) HDTVRip 720p от New-Team

563 | 186

13.05 ГБ

В этой теме нет новых непрочитанных сообщений. Великий Человек-паук / Совершенный Человек-паук / Ultimate Spider-Man [01x01-12 из 26] (2012) DVDRip-AVC от New-Team | D | лицензия

25 | 101

4.24 ГБ

В этой теме нет новых непрочитанных сообщений. Великий Человек-паук / Совершенный Человек-паук / Ultimate Spider-Man [01x01-12 из 26] (2012) DVDRip от New-Team | D | лицензия

28 | 72

4.25 ГБ

В этой теме нет новых непрочитанных сообщений. Великий Человек-паук / Совершенный Человек-паук / Ultimate Spider-Man [01x01-12 из 26] (2012) 2xDVD9 от New-Team | D | Лицензия

2 | 96

13.38 ГБ




Вы не можете начинать темы
Вы не можете отвечать на сообщения
Вы не можете редактировать свои сообщения
Вы не можете удалять свои сообщения
Вы не можете добавлять вложения

Перейти:  
Для Мосгорсуда, Роскомнадзора и рекламодателей: mosgorsud-torrent[собачка]yandex.ru
 Вход
ppkBB3cker v.2 © 2008-2014 @ PPK
[ Time : 0.048s | 15 Queries | GZIP : Off ]

Торрент трекер RUTOR.IN, Не можете зайти на rutor.org? Какой новый адрес рутор? Какое зеркало рутор? Не работает rutor.org и зеркала? Тогда наш торрент специально для вас. Rutor.in неофициальное зеркало rutor. В случае если у Вас заблокирован rutor или вдруг Вы не можете на него зайти, то Вы без труда сможете скачать бесплатно и без рекламы последние новинки кино, игр, сериалов и прочего у нас, на Rutor.in. Не нужно использовать прокси, чтобы зайти на рутор, достаточно воспользоваться нашим ресурсом. Все новые фильмы, игры, сериалы, книги и музыка за 2013 и 2014 годы через торрент бесплатно. Скачивайте фильмы в хорошем качестве, игры для пк, xbox, playstation без регистрации. У нас вы найдете новые Зарубежные сериалы и Русские сериалы 2013, 2014, 2015 годов. Оставайтесь с нами, качайте любимые фильмы, игры, сериалы, книги и музыку.