img image001 image001 image001 image001 image001 image001 image001 image001 image001 image001 image001 image001 image001 image001 image001

Planets Sun Sun Sun
Статистика раздачи
Автор: Nickolas3434 | Размер: 12.19 ГБ | Добавлен: 22 окт 2015
Раздают: 74    Качают: 27
Скачать торрент
Скачать торрент
Описание торрента

СообщениеДобавлено: 22 окт 2015 

«Небесная справедливость в действии»

Год выпуска: 2013
Производство: США / Kripke Enterprises, Supernatural Films, Warner Bros. Television, Wonderland Sound and Vision
Жанр: Ужасы, фэнтези, триллер, драма, детектив
Режиссеры: Роберт Сингер, Филип Сгриккиа, Ким Мэннерс
Продюсеры: Филип Сгриккиа, Роберт Сингер, Тодд Филип Аронье
Актеры: Джаред Падалеки, Дженсен Эклс, Миша Коллинз, Марк Шеппард, Осрик Чау, Лэйн Балабан, Тай Олссон, Аманда Таппинг, Кёртис Армстронг, Элейна Хаффман, Тайлер Джонстон, Фелиция Дэй, Лорен Том, Джим Бивер
Описание фильма:
После года заточения в Чистилище Дин возвращается на Землю без Кастиэля, принеся с собой внутри своего тела вампира Бенни. В течение этого года Сэм перестал охотиться и начал встречаться с ветеринаром по имени Амелия. К возвращению Дина они уже расстались. Дин втайне помогает Бенни овладеть своим телом и воссоединяется с Сэмом. Вместе они узнают, что пророк Кевин спасся от Кроули. Кевин рассказывает им, что Кроули нашёл ещё одну скрижаль со Словом Божьим, которое содержит заклинание, способное навеки закрыть Врата Ада и заточить всех демонов внутри. Ко всему прочему, заклинание способно и на противоположное: открыть врата и вышвырнуть всех демонов наружу, на Землю, чего и хочет Кроули. Кевин также говорит, что он украл скрижаль, заставив Кроули преследовать его и в процессе убить его мать. Мать Кевина присоединяется к путешествию своего сына.
Сэм выявляет сущность Бенни, вследствие чего два брата ссорятся. Тем временем Кастиэль загадочным образом возвращается из Чистилища. Кроули снова ловит Кевина и пытает его, заставляя рассказать ему о других скрижалях, но Кастиэль спасает его. Позже Винчестеры и Кастиэль спасают ангела по имени Самадриэль, но незадолго до этого он под пыткой рассказывает, что есть ангельская скрижаль, которая может нанести большой вред, если попадет в плохие руки. Винчестеры также узнают, что они наследники Хранителей Знаний, секретного общества, которое архивировало сверхъестественные знания, и вступают в хранилище этих знаний, которое находится в их родном штате Канзас. Сэм и Дин узнают, что для закрытия Врат Ада нужно пройти три испытания, два из которых (искупаться в крови адского пса и спасти невинную душу из Ада и доставить её в Рай) Сэму удается пройти до того, как Кроули снова заполучает Кевина и его заметки о демонской скрижали, которую тот спрятал из-за паранойи. Винчестеры и Кастиэль находят ангельскую скрижаль с помощью Мэг, но её убивают, а Кастиэль сбегает со скрижалью, чтобы защитить её ото всех, даже от самих братьев. В дальнейшем Винчестеры находят ангела Метатрона, писца Слова Божьего, а также вторую часть демонской скрижали, которая называет третье испытание — вылечить демона.
Перевод: Дублированный [Кравец - Рекордз]
Субтитры: Русские форсированные (не отключаемые)




Продолжительность: ~00:42:00 серия
Качество видео: WEB-DLRip
Видео: XviD, 720x400, ~1300 Кбит/сек
Аудио 1: MP3 2.0, 192 Кбит/сек [Русский - дублированный]
Аудио 2: MP3 2.0, 192 Кбит/сек [Английский - оригинал]
Видео
Идентификатор : 0
Формат : MPEG-4 Visual
Профиль формата : Simple@L3
Параметр BVOP формата : Нет
Параметр QPel формата : Нет
Параметр GMC формата : Без точки перехода
Параметр матрицы формата : Default (H.263)
Идентификатор кодека : XVID
Идентификатор кодека/Подсказка : XviD
Продолжительность : 42 м.
Битрейт : 1356 Кбит/сек
Ширина : 720 пикселей
Высота : 400 пикселей
Соотношение сторон : 16:9
Частота кадров : 23,976 кадра/сек
Цветовое пространство : YUV
Субдискретизация насыщенности : 4:2:0
Битовая глубина : 8 бит
Тип развёртки : Прогрессивная
Метод сжатия : С потерями
Бит/(Пиксели*Кадры) : 0.196
Размер потока : 415 Мбайт (75%)
Библиотека кодирования : XviD 1.2.1 (UTC 2008-12-04)
Аудио #1
Идентификатор : 1
Формат : MPEG Audio
Версия формата : Version 1
Профиль формата : Layer 3
Режим : Joint stereo
Идентификатор кодека : 55
Идентификатор кодека/Подсказка : MP3
Продолжительность : 42 м.
Вид битрейта : Постоянный
Битрейт : 192 Кбит/сек
Каналы : 2 канала
Частота : 48,0 КГц
Метод сжатия : С потерями
Размер потока : 78,2 Мбайт (14%)
Выравнивание : Соединение по промежуткам
Продолжительность промежутка : 42 мс. (1,00 видеокадр)
Время предзагрузки промежутка : 504 мс.
Аудио #2
Идентификатор : 2
Формат : MPEG Audio
Версия формата : Version 1
Профиль формата : Layer 3
Режим : Joint stereo
Расширение режима : MS Stereo
Идентификатор кодека : 55
Идентификатор кодека/Подсказка : MP3
Продолжительность : 42 м.
Вид битрейта : Постоянный
Битрейт : 192 Кбит/сек
Каналы : 2 канала
Частота : 48,0 КГц
Метод сжатия : С потерями
Размер потока : 58,7 Мбайт (11%)
Выравнивание : Соединение по промежуткам
Продолжительность промежутка : 42 мс. (1,00 видеокадр)
Время предзагрузки промежутка : 504 мс.
01. Есть разговор о Кевине / We need to talk about Kevin
02. Что такое, мать-тигрица? / What's up, tiger mommy?
03. Сердечные страдания / Heartache
04. Укушенный / Bitten
05. Брат по крови / Blood brother
06. Южное гостеприимство / Southern comfort
07. Кусочек Кевина / A little slice of kevin
08. Бесстрашные охотники / Hunteri heroici
09. Гражданин клык / Citizen fang
10. Побитые жизнью / Torn and frayed
11. Ролевая игра и настоящая девушка / LARP and the real girl
12. С течением времени / As time goes by
13. Все ненавидят Гитлера / Everybody hates Hitler
14. Метод проб и ошибок / Trial and error
15. Друг с привилегиями / Man's best friend with benefits
16. Вспоминая Титанов / Remember the titans
17. Прощай, незнакомец / Goodbye stranger
18. Чудики и чокнутые / Freaks and geeks
19. Таксист / Taxi driver
20. Лихорадка Пакмана / Pac-Man fever
21. Великий беглец / The great escapist
22. Клип Шоу / Clip Show
23. Жертва/ Sacrifice

Скриншоты:

За WEB-DLRip спасибо большое martokc​



   Похожие торренты   Торрент   Размер 
В этой теме нет новых непрочитанных сообщений. Сверхъестественное / Supernatural [S11] (2016) WEB-DLRip | Кравец

20 | 19

12.85 ГБ

В этой теме нет новых непрочитанных сообщений. Сверхъестественное / Supernatural [S9] (2014) WEB-DLRip | Кравец

74 | 39

16.32 ГБ

В этой теме нет новых непрочитанных сообщений. Сверхъестественное / Supernatural [S10] (2015) WEB-DLRip | Кравец

107 | 128

14.35 ГБ

В этой теме нет новых непрочитанных сообщений. Сверхъестественное / Supernatural [S10] (2015) DVB | Кравец

107 | 63

9.82 ГБ

В этой теме нет новых непрочитанных сообщений. Сверхъестественное / Supernatural [10x01-12 из 23] (2015) DVB | Кравец

21 | 7

5.18 ГБ

В этой теме нет новых непрочитанных сообщений. Сверхъестественное / Supernatural [10x01-12 из 23] (2015) DVB | Кравец

27 | 29

6.9 ГБ

В этой теме нет новых непрочитанных сообщений. Сверхъестественное / Supernatural [S01-11] (2005-2016) BDRemux 1080р | Рен-ТВ, Кравец, NovaFilm, LostFilm

17 | 49

1.3 ТБ




Вы не можете начинать темы
Вы не можете отвечать на сообщения
Вы не можете редактировать свои сообщения
Вы не можете удалять свои сообщения
Вы не можете добавлять вложения

Перейти:  
Для Мосгорсуда, Роскомнадзора и рекламодателей: mosgorsud-torrent[собачка]yandex.ru
 Вход
ppkBB3cker v.2 © 2008-2014 @ PPK
[ Time : 0.037s | 15 Queries | GZIP : Off ]

Торрент трекер RUTOR.IN, Не можете зайти на rutor.org? Какой новый адрес рутор? Какое зеркало рутор? Не работает rutor.org и зеркала? Тогда наш торрент специально для вас. Rutor.in неофициальное зеркало rutor. В случае если у Вас заблокирован rutor или вдруг Вы не можете на него зайти, то Вы без труда сможете скачать бесплатно и без рекламы последние новинки кино, игр, сериалов и прочего у нас, на Rutor.in. Не нужно использовать прокси, чтобы зайти на рутор, достаточно воспользоваться нашим ресурсом. Все новые фильмы, игры, сериалы, книги и музыка за 2013 и 2014 годы через торрент бесплатно. Скачивайте фильмы в хорошем качестве, игры для пк, xbox, playstation без регистрации. У нас вы найдете новые Зарубежные сериалы и Русские сериалы 2013, 2014, 2015 годов. Оставайтесь с нами, качайте любимые фильмы, игры, сериалы, книги и музыку.