img image001 image001 image001 image001 image001 image001 image001 image001 image001 image001 image001 image001 image001 image001 image001

Planets Sun Sun Sun
Статистика раздачи
Автор: Nickolas3434 | Размер: 16.32 ГБ | Добавлен: 24 окт 2015
Раздают: 74    Качают: 39
Скачать торрент
Скачать торрент
Описание торрента

СообщениеДобавлено: 24 окт 2015 

«Небесная справедливость в действии»

Год выпуска: 2014
Производство: США / Kripke Enterprises, Supernatural Films, Warner Bros. Television, Wonderland Sound and Vision
Жанр: Ужасы, фэнтези, триллер, драма, детектив
Режиссеры: Роберт Сингер, Филип Сгриккиа, Ким Мэннерс
Продюсеры: Филип Сгриккиа, Роберт Сингер, Тодд Филип Аронье
Актеры: Джаред Падалеки, Дженсен Эклс, Миша Коллинз, Марк Шеппард, Тамо Пеникетт, Кёртис Армстронг, Элейна Хаффман, Осрик Чау, Эрика Кэрролл, Адам Харрингтон, Ким Родс, Джим Бивер, А. Дж. Баккли, Фелиция Дэй
Описание фильма:
После испытаний Сэм впал в кому. Дин пытался сделал всё, чтобы восстановить его, но когда понял, что всё тщетно, воззвал ко всем ангелам и заявил, что Сэм умирает и что он, Дин Винчестер, готов принять помощь любого ангела. В итоге к нему пришёл ангел, представившейся Иезекиилем. После осмотра Сэма тот заявил, что слишком слаб и сможет излечить Сэма только изнутри. Ангел обманом вселяется в тело Сэма, стирает ему воспоминания о происходящем. В это время Кастиэль, лишённый Благодати, попадает на землю. Гарт, охотник и бывший помощник Дина, становится вервольфом. Кастиэль снова становится ангелом, забрав Благодать у другого ангела. Сэму становится значительно лучше, но потом выясняется, что в Сэме находится вовсе не Иезекиил, а падший ангел Гадриэль, который в далёком прошлом впустил в рай Люцифера и из-за этого был заточён на 700 лет в небесную тюрьму. Дин с помощью печати пытается поговорить с Сэмом, но ангел изменил печать и смог сбежать, убив пророка Кевина по заказу Метатрона. Кроули, Дин и Кастиэль изгоняют Гадриэля, и тот возвращается в своё прежнее тело.
Сэм и Дин вновь встречаются с Укротителями духов и начинают охоту на Тонкого человека. Кроули начинает сотрудничать с Дином, дабы найти Первый клинок и убить рыцаря ада Аббадон. Они находят Каина, и тот передаёт Дину свою печать, говоря, что без печати от клинка нет пользы. Сам же клинок они находят у бывшего хранителя знаний. Дин убивает Аббадон и понимает, что испытывает тягу к убийству. Кастиэль становится предводителем армии ангелов. Ангелы говорят Кастиэлю, чтобы он убил Дина за то, что тот убил Тессу, но он отказывается. В итоге группа Кастиэля присоединяется к Метатрону. Гадриэль переходит на сторону Винчестеров и Кастиэля.
Перевод: Дублированный [Кравец - Рекордз]




Продолжительность: ~00:42:00 серия
Качество видео: WEB-DLRip
Видео: XviD, 720x400, ~2000 Кбит/сек
Аудио 1: MP3 2.0, 192 Кбит/сек [Русский - дублированный]
Аудио 2: MP3 2.0, 192 Кбит/сек [Английский - оригинал]
Видео
Идентификатор : 0
Формат : MPEG-4 Visual
Профиль формата : Advanced Simple@L5
Параметр BVOP формата : 1
Параметр QPel формата : Нет
Параметр GMC формата : Без точки перехода
Параметр матрицы формата : Default (MPEG)
Идентификатор кодека : XVID
Идентификатор кодека/Подсказка : XviD
Продолжительность : 42 м.
Битрейт : 2000 Кбит/сек
Ширина : 720 пикселей
Высота : 400 пикселей
Соотношение сторон : 16:9
Частота кадров : 23,976 кадра/сек
Цветовое пространство : YUV
Субдискретизация насыщенности : 4:2:0
Битовая глубина : 8 бит
Тип развёртки : Прогрессивная
Метод сжатия : С потерями
Бит/(Пиксели*Кадры) : 0.290
Размер потока : 605 Мбайт (83%)
Библиотека кодирования : XviD 65
Аудио #1
Идентификатор : 1
Формат : MPEG Audio
Версия формата : Version 1
Профиль формата : Layer 3
Режим : Joint stereo
Идентификатор кодека : 55
Идентификатор кодека/Подсказка : MP3
Продолжительность : 42 м.
Вид битрейта : Постоянный
Битрейт : 192 Кбит/сек
Каналы : 2 канала
Частота : 48,0 КГц
Метод сжатия : С потерями
Размер потока : 58,1 Мбайт (8%)
Выравнивание : Соединение по промежуткам
Продолжительность промежутка : 42 мс. (1,00 видеокадр)
Время предзагрузки промежутка : 504 мс.
Аудио #2
Идентификатор : 2
Формат : MPEG Audio
Версия формата : Version 1
Профиль формата : Layer 3
Режим : Joint stereo
Идентификатор кодека : 55
Идентификатор кодека/Подсказка : MP3
Продолжительность : 42 м.
Вид битрейта : Постоянный
Битрейт : 192 Кбит/сек
Каналы : 2 канала
Частота : 48,0 КГц
Метод сжатия : С потерями
Размер потока : 58,1 Мбайт (8%)
Выравнивание : Соединение по промежуткам
Продолжительность промежутка : 42 мс. (1,00 видеокадр)
Время предзагрузки промежутка : 504 мс.
01. Я думаю, мне здесь понравится / I think i'm gonna like it here
02. Дьяволу не всё равно / Devil may Care
03. Я не ангел / I'm no angel
04. Девичник / Slumber party
05. Собачий полдень Дина / Dog Dean afternoon
06. Небеса не могут ждать / Heaven can't wait
07. Плохие парни / Bad boys
08. Молот и наковальня / Rock and a hard place
09. Святой террор / Holy terror
10. Дорожное приключение / Road trip
11. Перворожденный / First born
12. Острые Зубы / Sharp teeth
13. Судная ночь / The purge
14. В западне / Captives
15. Тонкий человек / Thinman
16. Бегущий по лезвию / Blade runners
17. Маленький помощник матери / Mother's little helper
18. Метапроза / Meta fiction
19. Алекс Энни Алексис Энн / Alex Annie Alexis Ann
20. Родословная / Bloodlines
21. Король проклятых / King of the damned
22. Лестница в небо / Stairway to heaven
23. Ты веришь в чудеса / Do you believe in miracles

Скриншоты:


За WEB-DLRip спасибо большое martokc​



   Похожие торренты   Торрент   Размер 
В этой теме нет новых непрочитанных сообщений. Сверхъестественное / Supernatural [S8] (2013) WEB-DLRip | Кравец

74 | 27

12.19 ГБ

В этой теме нет новых непрочитанных сообщений. Сверхъестественное / Supernatural [S11] (2016) WEB-DLRip | Кравец

20 | 20

12.85 ГБ

В этой теме нет новых непрочитанных сообщений. Сверхъестественное / Supernatural [S10] (2015) WEB-DLRip | Кравец

107 | 128

14.35 ГБ

В этой теме нет новых непрочитанных сообщений. Сверхъестественное / Supernatural [S10] (2015) DVB | Кравец

107 | 63

9.82 ГБ

В этой теме нет новых непрочитанных сообщений. Сверхъестественное / Supernatural [10x01-12 из 23] (2015) DVB | Кравец

27 | 29

6.9 ГБ

В этой теме нет новых непрочитанных сообщений. Сверхъестественное / Supernatural [10x01-12 из 23] (2015) DVB | Кравец

21 | 7

5.18 ГБ

В этой теме нет новых непрочитанных сообщений. Сверхъестественное / Supernatural [S01-10] (2005-2015) BDRemux 1080р | Рен-ТВ, Кравец, NovaFilm, LostFilm

9 | 72

1.16 ТБ




Вы не можете начинать темы
Вы не можете отвечать на сообщения
Вы не можете редактировать свои сообщения
Вы не можете удалять свои сообщения
Вы не можете добавлять вложения

Перейти:  
Для Мосгорсуда, Роскомнадзора и рекламодателей: mosgorsud-torrent[собачка]yandex.ru
 Вход
ppkBB3cker v.2 © 2008-2014 @ PPK
[ Time : 0.555s | 15 Queries | GZIP : Off ]

Торрент трекер RUTOR.IN, Не можете зайти на rutor.org? Какой новый адрес рутор? Какое зеркало рутор? Не работает rutor.org и зеркала? Тогда наш торрент специально для вас. Rutor.in неофициальное зеркало rutor. В случае если у Вас заблокирован rutor или вдруг Вы не можете на него зайти, то Вы без труда сможете скачать бесплатно и без рекламы последние новинки кино, игр, сериалов и прочего у нас, на Rutor.in. Не нужно использовать прокси, чтобы зайти на рутор, достаточно воспользоваться нашим ресурсом. Все новые фильмы, игры, сериалы, книги и музыка за 2013 и 2014 годы через торрент бесплатно. Скачивайте фильмы в хорошем качестве, игры для пк, xbox, playstation без регистрации. У нас вы найдете новые Зарубежные сериалы и Русские сериалы 2013, 2014, 2015 годов. Оставайтесь с нами, качайте любимые фильмы, игры, сериалы, книги и музыку.
cron