img image001 image001 image001 image001 image001 image001 image001 image001 image001 image001 image001 image001 image001 image001 image001

Planets Sun Sun Sun
Статистика раздачи
Автор: Nickolas3434 | Размер: 9.07 ГБ | Добавлен: 30 окт 2015
Раздают: 43    Качают: 39
Скачать торрент
Скачать торрент
Описание торрента

СообщениеДобавлено: 30 окт 2015 


Информация о фильме
Название: Блант говорит / Вещественный Блант
Оригинальное название: Blunt Talk
Год выхода: 2015
Жанр: Комедия
Режиссер: Тристрам Шапиро, Билл Д’Элиа
В ролях: Патрик Стюарт, Эдриан Скарборо, Тимм Шарп, Джеки Уивер, Долли Уэллс, Каран Сони и другие
О фильме:
Эксцентричный британский телеведущий Уолтер Блант переезжает в Лос-Анджелес вместе со своим слугой-алкоголиком и багажом из нескольких неудачных браков, чтобы вести собственное ток-шоу, в котором Блант пытается давать американцам мудрые на его взгляд советы о правильном образе жизни, мыслях и поведении, хотя самого Уолтера трудно назвать примером для подражания.

Страна: США
Продолжительность: ~00:30:00
Перевод: Профессиональный (многоголосый закадровый) студия Jaskier
Перевод: Алексей Матвеев, Александр Тихонов
Файл
Кодек: AVC
Качество: WEB-DL
Видео: MPEG4 Video (H264) 1278x720 23.976fps ~3800Kbps 0.173 bit/pixel
Аудио 1 (русская дорожка): AC3, 48 kHz, 2 ch, 192 kbps
Аудио 2 (оригинал): AC3, 48 kHz, 6 ch, 384 kbps
Семпл


General
Unique ID : 247477163653343945194564646072860716991 (0xBA2E5E35752AEBBB9D3736237A16AFBF)
Complete name : O:HD VideoBlunt Talk. 1 season (WEB-DL l 720p l Jaskier)Blunt.Talk.S01E02.I.Experience.Shame.and.Anticipate.Punishment.720p.WEB-DL.DD5.1.H.264-Jaskier.mkv
Format : Matroska
Format version : Version 1
File size : 951 MiB
Duration : 29mn 44s
Overall bit rate : 4 472 Kbps
Encoded date : UTC 2015-09-25 11:43:52
Writing application : mkvmerge v2.3.0 ('Freak U') built on Sep 8 2008 18:32:16
Writing library : libebml v0.7.7 + libmatroska v0.8.1
DURATION : 00:28:32.809000000
NUMBER_OF_FRAMES : 585
NUMBER_OF_BYTES : 19446
_STATISTICS_WRITING_APP : mkvmerge v8.1.0 ('Psychedelic Postcard') 64bit
_STATISTICS_WRITING_DATE_UT : 2015-09-20 15:30:21
_STATISTICS_TAGS : BPS DURATION NUMBER_OF_FRAMES NUMBER_OF_BYTES
Video
ID : 1
Format : AVC
Format/Info : Advanced Video Codec
Format profile : High@L3.1
Format settings, CABAC : No
Format settings, ReFrames : 2 frames
Codec ID : V_MPEG4/ISO/AVC
Duration : 29mn 44s
Bit rate : 3 807 Kbps
Width : 1 278 pixels
Height : 720 pixels
Display aspect ratio : 16:9
Frame rate mode : Constant
Frame rate : 23.976 fps
Color space : YUV
Chroma subsampling : 4:2:0
Bit depth : 8 bits
Scan type : Progressive
Bits/(Pixel*Frame) : 0.173
Stream size : 810 MiB (85%)
Language : English
Default : Yes
Forced : No
Color range : Limited
Color primaries : BT.709
Transfer characteristics : BT.709
Matrix coefficients : BT.709
Audio #1
ID : 2
Format : AC-3
Format/Info : Audio Coding 3
Mode extension : CM (complete main)
Format settings, Endianness : Big
Codec ID : A_AC3
Duration : 29mn 44s
Bit rate mode : Constant
Bit rate : 192 Kbps
Channel(s) : 2 channels
Channel positions : Front: L R
Sampling rate : 48.0 KHz
Compression mode : Lossy
Stream size : 40.8 MiB (4%)
Language : Russian
Default : Yes
Forced : No
Audio #2
ID : 3
Format : AC-3
Format/Info : Audio Coding 3
Mode extension : CM (complete main)
Format settings, Endianness : Big
Codec ID : A_AC3
Duration : 29mn 44s
Bit rate mode : Constant
Bit rate : 384 Kbps
Channel(s) : 6 channels
Channel positions : Front: L C R, Side: L R, LFE
Sampling rate : 48.0 KHz
Compression mode : Lossy
Stream size : 81.7 MiB (9%)
Language : English
Default : No
Forced : No
Text
ID : 4
Format : UTF-8
Codec ID : S_TEXT/UTF8
Codec ID/Info : UTF-8 Plain Text
Language : English
Default : No
Forced : No



   Похожие торренты   Торрент   Размер 
В этой теме нет новых непрочитанных сообщений. Блант говорит / Blunt Talk [01x01-09 из 10] (2015) WEB-DL 720p | Jaskier

35 | 39

7.99 ГБ

В этой теме нет новых непрочитанных сообщений. Блант говорит / Blunt Talk [01x01-08 из 10] (2015) WEB-DL 720p | Jaskier

23 | 19

6.77 ГБ

В этой теме нет новых непрочитанных сообщений. Блант говорит / Blunt Talk [01x01-06 из 10] (2015) WEB-DL 720p | Jaskier

46 | 53

5.22 ГБ

В этой теме нет новых непрочитанных сообщений. Блант говорит / Blunt Talk [01x01-03 из 10] (2015) HDTV 720p | Jaskier

34 | 18

2.58 ГБ

В этой теме нет новых непрочитанных сообщений. Блант говорит / Blunt Talk [01x01 из 10] (2015) HDTV 720p | Jaskier

170 | 4

813.75 МБ

В этой теме нет новых непрочитанных сообщений. Блант говорит / Вещественный Блант / Blunt Talk [02x01 из 10] (2016) HDTVRip | Jaskier

0 | 0

228.21 МБ

В этой теме нет новых непрочитанных сообщений. Блант говорит / Вещественный Блант / Blunt Talk [02x01 из 10] (2016) HDTVRip 720 | Jaskier

0 | 0

581.12 МБ




Вы не можете начинать темы
Вы не можете отвечать на сообщения
Вы не можете редактировать свои сообщения
Вы не можете удалять свои сообщения
Вы не можете добавлять вложения

Перейти:  
Для Мосгорсуда, Роскомнадзора и рекламодателей: mosgorsud-torrent[собачка]yandex.ru
 Вход
ppkBB3cker v.2 © 2008-2014 @ PPK
[ Time : 0.049s | 14 Queries | GZIP : Off ]

Торрент трекер RUTOR.IN, Не можете зайти на rutor.org? Какой новый адрес рутор? Какое зеркало рутор? Не работает rutor.org и зеркала? Тогда наш торрент специально для вас. Rutor.in неофициальное зеркало rutor. В случае если у Вас заблокирован rutor или вдруг Вы не можете на него зайти, то Вы без труда сможете скачать бесплатно и без рекламы последние новинки кино, игр, сериалов и прочего у нас, на Rutor.in. Не нужно использовать прокси, чтобы зайти на рутор, достаточно воспользоваться нашим ресурсом. Все новые фильмы, игры, сериалы, книги и музыка за 2013 и 2014 годы через торрент бесплатно. Скачивайте фильмы в хорошем качестве, игры для пк, xbox, playstation без регистрации. У нас вы найдете новые Зарубежные сериалы и Русские сериалы 2013, 2014, 2015 годов. Оставайтесь с нами, качайте любимые фильмы, игры, сериалы, книги и музыку.