img image001 image001 image001 image001 image001 image001 image001 image001 image001 image001 image001 image001 image001 image001 image001

Planets Sun Sun Sun
Статистика раздачи
Автор: Nickolas3434 | Размер: 4.38 ГБ | Добавлен: 30 окт 2015
Раздают: 1096    Качают: 404
Скачать торрент
Скачать торрент
Описание торрента

СообщениеДобавлено: 30 окт 2015 


Информация о фильме
Название: Палач
Год выхода: 2014
Жанр: Драма, триллер
Режиссер: Вячеслав Никифоров
В ролях: Андрей Смоляков, Виктория Толстоганова, Юлия Пересильд, Марина Александрова, Алексей Бардуков, Юрий Тарасов, Владимир Юматов, Вадим Андреев, Даниэла Стоянович, Саша Дробитько, Виталий Кищенко, Мария Андреева, Людмила Полякова, Анатолий Журавлёв, Алёна Константинова, Вероника Лысакова, Филипп Гуревич, Василий Слюсаренко, Юрий Чурсин, Светлана Ходченкова, Денис Бургазлиев, Иван Волков, Луиза Мосендз, Анатолий Просалов, Василий Сахновский, Анвар Халилулаев, Вероника Вернадская, Алексей Дмитриев, Ёла Санько, Анатолий Калмыков, Юлия Куварзина, Станислав Беляев, Руслан Ягудин
О фильме:
События разворачиваются на окраине Москвы в 1965 году. В центре - история разоблачения женщины-палача, которая во время войны по указке немцев расстреливала пленных, партизан, мирных жителей. Это фактически отдельная гражданская война изуверки со своим народом. В войну ей едва исполнилось 20 лет, а на ее счету было уже полторы тысячи убийств. Своих жертв она расстреливала из пулемета, прячась за игрушечной маской зайчика. Потом выпивала бутылку самогона и затем появлялась уже на следующее утро без маски и жила обычной жизнью, такой же, как и все остальные...Поэтому после войны вычислить убийцу было очень непросто. Дело это поручили главному следователю. Его подозрения падают то на одну, то на другую женщину...

Страна: Россия
Студия: ООО "Студия Русский Проект"
Продолжительность: 10 х ~ 00:52:00
Язык: Русский
Файл
Кодек: XviD
Качество: WEB-DLRip
Видео: XviD, ~ 1060 Кбит/с, 688х384
Звук: MP3, 2 ch, 128 Кбит/с
Общее
Полное имя : Palach.(10.serij.iz.10).2014.XviD.WEB-DLRip.by.GeneralFilm�1.seriya.avi
Формат : AVI
Формат/Информация : Audio Video Interleave
Размер файла : 448 Мбайт
Продолжительность : 51 м.
Общий поток : 1210 Кбит/сек
Программа кодирования : VirtualDubMod 1.5.10.3 | www.virtualdub-fr.org || (build 2550/release)
Библиотека кодирования : VirtualDubMod build 2550/release
Видео
Идентификатор : 0
Формат : MPEG-4 Visual
Профиль формата : Advanced Simple@L5
Параметр BVOP формата : 1
Параметр QPel формата : Нет
Параметр GMC формата : Без точки перехода
Параметр матрицы формата : Выборочная
Идентификатор кодека : XVID
Идентификатор кодека/Подсказка : XviD
Продолжительность : 51 м.
Битрейт : 1064 Кбит/сек
Ширина : 688 пикселей
Высота : 384 пикселя
Соотношение сторон : 16:9
Частота кадров : 50,000 кадров/сек
Цветовое пространство : YUV
Субдискретизация насыщенности : 4:2:0
Битовая глубина : 8 бит
Тип развёртки : Прогрессивная
Метод сжатия : С потерями
Бит/(Пиксели*Кадры) : 0.081
Размер потока : 394 Мбайт (88%)
Библиотека кодирования : XviD 73
Аудио
Идентификатор : 1
Формат : MPEG Audio
Версия формата : Version 1
Профиль формата : Layer 3
Идентификатор кодека : 55
Идентификатор кодека/Подсказка : MP3
Продолжительность : 51 м.
Вид битрейта : Постоянный
Битрейт : 128 Кбит/сек
Каналы : 2 канала
Частота : 48,0 КГц
Метод сжатия : С потерями
Размер потока : 47,4 Мбайт (11%)
Выравнивание : Соединение по промежуткам
Продолжительность промежутка : 24 мс. (1,20 видеокадр)
Время предзагрузки промежутка : 504 мс.
Библиотека кодирования : LAME3.99r
Настройки программы : -m s -V 4 -q 0 -lowpass 17 -b 128








Релиз от:
Исходник 720р:



   Похожие торренты   Торрент   Размер 
В этой теме нет новых непрочитанных сообщений. Палач [01-10 из 10] (2014) WEB-DLRip от ExKinoRay

386 | 75

7.32 ГБ

В этой теме нет новых непрочитанных сообщений. Палач / The Bastard Executioner [S01] (2015) WEB-DLRip | IdeaFilm

350 | 97

6.3 ГБ

В этой теме нет новых непрочитанных сообщений. Палач / The Bastard Executioner [01x01 из 10] (2015) WEB-DLRip | NewStudio

848 | 107

1.07 ГБ

В этой теме нет новых непрочитанных сообщений. Палач / The Bastard Executioner [01x01-08 из 10] (2015) WEB-DLRip | NewStudio

422 | 487

5.17 ГБ

В этой теме нет новых непрочитанных сообщений. Палач / The Bastard Executioner [01x01-05 из 10] (2015) WEB-DLRip | NewStudio

427 | 240

3.12 ГБ

В этой теме нет новых непрочитанных сообщений. Палач-Бастард / The Bastard Executioner [01x01-05] (2015) WEB-DLRip | IdeaFilm

305 | 268

3.06 ГБ

В этой теме нет новых непрочитанных сообщений. Палач-Бастард / The Bastard Executioner [01x01-03] (2015) WEB-DLRip | IdeaFilm

137 | 55

1.75 ГБ




Вы не можете начинать темы
Вы не можете отвечать на сообщения
Вы не можете редактировать свои сообщения
Вы не можете удалять свои сообщения
Вы не можете добавлять вложения

Перейти:  
Для Мосгорсуда, Роскомнадзора и рекламодателей: mosgorsud-torrent[собачка]yandex.ru
 Вход
ppkBB3cker v.2 © 2008-2014 @ PPK
[ Time : 0.042s | 14 Queries | GZIP : Off ]

Торрент трекер RUTOR.IN, Не можете зайти на rutor.org? Какой новый адрес рутор? Какое зеркало рутор? Не работает rutor.org и зеркала? Тогда наш торрент специально для вас. Rutor.in неофициальное зеркало rutor. В случае если у Вас заблокирован rutor или вдруг Вы не можете на него зайти, то Вы без труда сможете скачать бесплатно и без рекламы последние новинки кино, игр, сериалов и прочего у нас, на Rutor.in. Не нужно использовать прокси, чтобы зайти на рутор, достаточно воспользоваться нашим ресурсом. Все новые фильмы, игры, сериалы, книги и музыка за 2013 и 2014 годы через торрент бесплатно. Скачивайте фильмы в хорошем качестве, игры для пк, xbox, playstation без регистрации. У нас вы найдете новые Зарубежные сериалы и Русские сериалы 2013, 2014, 2015 годов. Оставайтесь с нами, качайте любимые фильмы, игры, сериалы, книги и музыку.