img image001 image001 image001 image001 image001 image001 image001 image001 image001 image001 image001 image001 image001 image001 image001

Planets Sun Sun Sun
Статистика раздачи
Автор: Nickolas3434 | Размер: 17.27 ГБ | Добавлен: 30 окт 2015
Раздают: 305    Качают: 164
Скачать торрент
Скачать торрент
Описание торрента

СообщениеДобавлено: 30 окт 2015 


Информация о фильме
Название: Во все тяжкие
Оригинальное название: Breaking Bad
Год выхода: 2008
Жанр: криминальная драма, детектив, триллер
Режиссер: Мишель МакЛарен, Адам Бернштейн, Винс Гиллиган
В ролях: Брайан Крэнстон, Анна Ганн, Аарон Пол, Дин Норрис, Бетси Брандт, АрДжей Митти, Боб Оденкёрк, Джанкарло Эспозито, Джонатан Бэнкс, Стивен Майкл Квезада
О фильме:
Школьный учитель химии Уолтер Уайт узнаёт, что болен раком лёгких. Учитывая сложное финансовое состояние дел семьи, а также перспективы, Уолтер решает заняться изготовлением метамфетамина. Для этого он привлекает своего бывшего ученика Джесси Пинкмана, когда-то исключённого из школы при активном содействии Уайта. Пинкман сам занимался «варкой мета», но накануне, в ходе рейда УБН, он лишился подельника и лаборатории…
General
Unique ID : 243616495324874771543854388992746815950 (0xB746D49075C3B760ABF24CCFAFA981CE)
Complete name : V:VIDEOВо все тяжкие (2008-2013)1 seasonBreaking.Bad_s01.e01.mkv
Format : Matroska
Format version : Version 4 / Version 2
File size : 2.89 GiB
Duration : 58mn 6s
Overall bit rate : 7 130 Kbps
Encoded date : UTC 2015-09-25 06:00:31
Writing application : mkvmerge v8.4.0 ('A better way to fly') 64bit
Writing library : libebml v1.3.1 + libmatroska v1.4.2
DURATION : 00:56:01.649000000
NUMBER_OF_FRAMES : 672
NUMBER_OF_BYTES : 19754
_STATISTICS_WRITING_APP : mkvmerge v8.4.0 ('A better way to fly') 64bit
_STATISTICS_WRITING_DATE_UT : 2015-09-25 06:00:31
_STATISTICS_TAGS : BPS DURATION NUMBER_OF_FRAMES NUMBER_OF_BYTES
Video
ID : 1
Format : AVC
Format/Info : Advanced Video Codec
Format profile : High@L3
Format settings, CABAC : No
Format settings, ReFrames : 1 frame
Codec ID : V_MPEG4/ISO/AVC
Duration : 58mn 6s
Bit rate : 2 461 Kbps
Nominal bit rate : 2 600 Kbps
Width : 1 920 pixels
Height : 1 080 pixels
Display aspect ratio : 16:9
Frame rate mode : Constant
Frame rate : 23.976 fps
Color space : YUV
Chroma subsampling : 4:2:0
Bit depth : 8 bits
Scan type : Progressive
Bits/(Pixel*Frame) : 0.050
Stream size : 1 023 MiB (35%)
Title : Breaking.Bad_s01.e01
Writing library : x264 core 116 r2019 9cc407d
Encoding settings : cabac=0 / ref=1 / deblock=1:0:0 / analyse=0x3:0x113 / me=hex / subme=7 / psy=1 / psy_rd=1.00:0.00 / mixed_ref=0 / me_range=16 / chroma_me=1 / trellis=1 / 8x8dct=1 / cqm=0 / deadzone=21,11 / fast_pskip=1 / chroma_qp_offset=-2 / threads=6 / sliced_threads=0 / nr=0 / decimate=1 / interlaced=0 / bluray_compat=0 / constrained_intra=0 / bframes=0 / weightp=2 / keyint=250 / keyint_min=23 / scenecut=40 / intra_refresh=0 / rc_lookahead=40 / rc=2pass / mbtree=1 / bitrate=2600 / ratetol=1.0 / qcomp=0.60 / qpmin=0 / qpmax=69 / qpstep=4 / cplxblur=20.0 / qblur=0.5 / ip_ratio=1.40 / aq=1:1.00
Default : Yes
Forced : No
Audio #1
ID : 2
Format : DTS
Format/Info : Digital Theater Systems
Mode : 16
Format settings, Endianness : Big
Codec ID : A_DTS
Duration : 58mn 6s
Bit rate mode : Constant
Bit rate : 1 509 Kbps
Channel(s) : 6 channels
Channel positions : Front: L C R, Side: L R, LFE
Sampling rate : 48.0 KHz
Bit depth : 24 bits
Compression mode : Lossy
Stream size : 627 MiB (21%)
Title : Кубикк в Кубе
Language : Russian
Default : Yes
Forced : No
Audio #2
ID : 3
Format : DTS
Format/Info : Digital Theater Systems
Mode : 16
Format settings, Endianness : Big
Codec ID : A_DTS
Duration : 58mn 6s
Bit rate mode : Constant
Bit rate : 1 509 Kbps
Channel(s) : 6 channels
Channel positions : Front: L C R, Side: L R, LFE
Sampling rate : 48.0 KHz
Bit depth : 24 bits
Compression mode : Lossy
Stream size : 627 MiB (21%)
Title : Lost Film
Language : Russian
Default : No
Forced : No
Audio #3
ID : 4
Format : DTS
Format/Info : Digital Theater Systems
Mode : 16
Format settings, Endianness : Big
Codec ID : A_DTS
Duration : 58mn 6s
Bit rate mode : Constant
Bit rate : 1 509 Kbps
Channel(s) : 6 channels
Channel positions : Front: L C R, Side: L R, LFE
Sampling rate : 48.0 KHz
Bit depth : 24 bits
Compression mode : Lossy
Stream size : 627 MiB (21%)
Title : Original
Language : English
Default : No
Forced : No
Text #1
ID : 5
Format : UTF-8
Codec ID : S_TEXT/UTF8
Codec ID/Info : UTF-8 Plain Text
Language : Russian
Default : Yes
Forced : No
Text #2
ID : 6
Format : UTF-8
Codec ID : S_TEXT/UTF8
Codec ID/Info : UTF-8 Plain Text
Language : Russian
Default : No
Forced : No
Text #3
ID : 7
Format : UTF-8
Codec ID : S_TEXT/UTF8
Codec ID/Info : UTF-8 Plain Text
Language : English
Default : No
Forced : No
Menu
00:00:00.000 : :Chapter 01
00:04:07.080 : :Chapter 02
00:16:07.215 : :Chapter 03
00:31:41.148 : :Chapter 04
00:48:30.657 : :Chapter 05
00:57:12.262 : :Chapter 06


Страна: США
Студия: Sony Pictures
Продолжительность: 5:29:00
Перевод: 1. Кубик в Кубе (рус. многоголосый закадровый)
2. Lost Films (рус. многоголосый закадровый)
Файл
Кодек: h.264
Качество: BDRip 1080
Видео: 1920х1080 / 2500 / 23,976
Звук:
1. (Рус.) DTS | 1509 Кбит/сек | 6 каналов | 48,0 КГц
2. (Рус.) DTS | 1509 Кбит/сек | 6 каналов | 48,0 КГц
3. (Eng.) DTS | 1509 Кбит/сек | 6 каналов | 48,0 КГц
Субтитры:
1. Русские (на испанскую речь)
2. Русские полные
3. Английские полные
[/



   Похожие торренты   Торрент   Размер 
В этой теме нет новых непрочитанных сообщений. Во все тяжкие / Breaking Bad [s04] (2011) BDRip 1080 by xIKARx

141 | 48

30.45 ГБ

В этой теме нет новых непрочитанных сообщений. Во все тяжкие / Breaking Bad [S01] (2008) BDRip от HELLYWOOD

1503 | 316

6.09 ГБ

В этой теме нет новых непрочитанных сообщений. Во все тяжкие / Breaking Bad [S01] (2008) BDRip от HQ-ViDEO

156 | 435

7.2 ГБ

В этой теме нет новых непрочитанных сообщений. Во все тяжкие / Breaking Bad [S01-04] (2008-2011) BDRip 720p от GYN

174 | 181

133.96 ГБ

В этой теме нет новых непрочитанных сообщений. Во все тяжкие / Breaking Bad [S01-05] (2008-2013) BDRip-AVC | LostFilm

5666 | 9686

70.47 ГБ

В этой теме нет новых непрочитанных сообщений. Во все тяжкие / Breaking Bad [S01] (2008) BDRip от Кубик в Кубе

848 | 295

5.6 ГБ

В этой теме нет новых непрочитанных сообщений. Во все тяжкие / Breaking Bad [Сезон 1] (2008) BDRip от HQCLUB

779 | 308

6.34 ГБ




Вы не можете начинать темы
Вы не можете отвечать на сообщения
Вы не можете редактировать свои сообщения
Вы не можете удалять свои сообщения
Вы не можете добавлять вложения

Перейти:  
Для Мосгорсуда, Роскомнадзора и рекламодателей: mosgorsud-torrent[собачка]yandex.ru
 Вход
ppkBB3cker v.2 © 2008-2014 @ PPK
[ Time : 0.036s | 14 Queries | GZIP : Off ]

Торрент трекер RUTOR.IN, Не можете зайти на rutor.org? Какой новый адрес рутор? Какое зеркало рутор? Не работает rutor.org и зеркала? Тогда наш торрент специально для вас. Rutor.in неофициальное зеркало rutor. В случае если у Вас заблокирован rutor или вдруг Вы не можете на него зайти, то Вы без труда сможете скачать бесплатно и без рекламы последние новинки кино, игр, сериалов и прочего у нас, на Rutor.in. Не нужно использовать прокси, чтобы зайти на рутор, достаточно воспользоваться нашим ресурсом. Все новые фильмы, игры, сериалы, книги и музыка за 2013 и 2014 годы через торрент бесплатно. Скачивайте фильмы в хорошем качестве, игры для пк, xbox, playstation без регистрации. У нас вы найдете новые Зарубежные сериалы и Русские сериалы 2013, 2014, 2015 годов. Оставайтесь с нами, качайте любимые фильмы, игры, сериалы, книги и музыку.