img image001 image001 image001 image001 image001 image001 image001 image001 image001 image001 image001 image001 image001 image001 image001

Planets Sun Sun Sun
Статистика раздачи
Автор: Nickolas3434 | Размер: 16.46 ГБ | Добавлен: 30 окт 2015
Раздают: 341    Качают: 273
Скачать торрент
Скачать торрент
Описание торрента

СообщениеДобавлено: 30 окт 2015 


Информация о фильме
Название: Страшные сказки
Оригинальное название: Penny Dreadful
Год выхода: 2014
Жанр: Ужасы, триллер, вампиры
Режиссер: Хуан Антонио Байона, Дирбла Уолш, Сэм Мендес
В ролях: Тимоти Далтон, Ева Грин, Джош Хартнетт, Рори Киннер, Хелен МакКрори, Билли Пайпер, Гарри Тредэвэй, Рив Карни, Алан Армстронг, Рик Берн, Джейд Юрелл
О фильме:
Сериал возвращает нас к всеми любимым героям, монстрам и злодеям. В викторианском Лондоне, где происходит действие сериала, никогда не было спокойно и безопасно. Особенно теперь, когда литературные персонажи ожили и наводят ужас на город. Неминуема встреча с вечно молодым Дорианом Греем, героем одноименного романа Оскара Уальда, доктором Франкенштейном и его зомби-монстром, хладнокровным графом Дракулой, охотником на вампиров и оборотней Ван Хельсингом и множеством других уникальных персонажей.

Сезон 1
01. Ночная работа / Night Work
02. Спиритический сеанс / Séance
03. Воскрешение / Resurrection
04. Полусвет / Demimonde
05. Больше, чем сёстры / Closer Than Sisters
06. То, что смерть соединила / What Death Can Join Together
07. Одержимость / Possession
08. Гран Гиньоль / Grand Guignol
Сезон 2
01. Сущий ад (Fresh Hell)
02. Язык Дьявола (Verbis Diablo)
03. Приходящие в ночи (The Nightcomers)
04. Духи злобы поднебесной (Evil Spirits in Heavenly Places)
05. Вверху — лишь купол синий (Above the Vaulted Sky)
06. Великие ужасы (Glorious Horrors)
07. Маленький скорпион (Little Scorpion)
08. Помни о смерти (Memento Mori)
09. Мой единственный враг — сам Ад (And Hell Itself My Only Foe)
10. И стали они врагами (And They Were Enemies)

Страна: США, Ирландия, Великобритания
Студия: Desert Wolf Productions, Neal Street Productions
Продолжительность: 18 x ~ 00:53:00
Перевод: Профессиональный (многоголосый, закадровый) [AlexFilm]
Файл
Формат: AVI
Качество: HDRip, WEB-DLRip
Видео: XviD, 720x400, ~1900 kbps, 23.976 fps
Аудио: AC3, 48.0 KHz, 6 ch, 192 Kbps
Субтитры: Нет
Семпл

Complete name : E:KinoStrashnye.Skazki.XviD.GFStrashnye.Skazki.S01.2014.XviD.HDRip.AF.GFStrashnye.Skazki.s01e01.2014.XviD.HDRip.AF.GF.avi
Format : AVI
Format/Info : Audio Video Interleave
File size : 819 MiB
Duration : 53mn 1s
Overall bit rate : 2 160 Kbps
Writing application : VirtualDubMod 1.5.10.3 | www.virtualdub-fr.org || (build 2550/release)
Writing library : VirtualDubMod build 2550/release
Video
ID : 0
Format : MPEG-4 Visual
Format profile : Advanced Simple@L5
Format settings, BVOP : 2
Format settings, QPel : No
Format settings, GMC : No warppoints
Format settings, Matrix : Default (H.263)
Codec ID : XVID
Codec ID/Hint : XviD
Duration : 53mn 1s
Bit rate : 1 959 Kbps
Width : 720 pixels
Height : 400 pixels
Display aspect ratio : 16:9
Frame rate : 23.976 fps
Color space : YUV
Chroma subsampling : 4:2:0
Bit depth : 8 bits
Scan type : Progressive
Compression mode : Lossy
Bits/(Pixel*Frame) : 0.284
Stream size : 743 MiB (91%)
Writing library : XviD 1.2.1 (UTC 2008-12-04)
Audio
ID : 1
Format : AC-3
Format/Info : Audio Coding 3
Mode extension : CM (complete main)
Format settings, Endianness : Big
Codec ID : 2000
Duration : 53mn 1s
Bit rate mode : Constant
Bit rate : 192 Kbps
Channel(s) : 6 channels
Channel positions : Front: L C R, Side: L R, LFE
Sampling rate : 48.0 KHz
Compression mode : Lossy
Stream size : 72.8 MiB (9%)
Alignment : Split accross interleaves
Interleave, duration : 42 ms (1.00 video frame)
Interleave, preload duratio : 500 ms

Релиз от:



   Похожие торренты   Торрент   Размер 
В этой теме нет новых непрочитанных сообщений. Страшные сказки / Penny Dreadful [S01-02] (2014) HDRip, WEB-DLRip от Generalfilm | КПК | AlexFilm

168 | 26

4.34 ГБ

В этой теме нет новых непрочитанных сообщений. Страшные сказки / Penny Dreadful [S01-03] (2014-2016) HDRip, WEB-DLRip от Generalfilm | КПК | AlexFilm

72 | 11

6.48 ГБ

В этой теме нет новых непрочитанных сообщений. Страшные сказки / Penny Dreadful [S01] (2014) HDTVRip 720p | AlexFilm

107 | 140

17 ГБ

В этой теме нет новых непрочитанных сообщений. Страшные сказки / Penny Dreadful [S01-02] (2014-2015) HDTVRip 720p | AlexFilm

38 | 29

32.64 ГБ

В этой теме нет новых непрочитанных сообщений. Страшные сказки / Penny Dreadful [S01-03] (2014-2016) HDTVRip, WEBRip | AlexFilm

152 | 102

16.93 ГБ

В этой теме нет новых непрочитанных сообщений. Ужасы по дешевке / Страшные сказки / Penny Dreadful [01x01 из 08] (2014) HDTVRip | AlexFilm

44 | 28

600.68 МБ

В этой теме нет новых непрочитанных сообщений. Страшные сказки / Penny Dreadful [S02] (2015) HDTVRip 1080p | AlexFilm

15 | 27

80.07 ГБ




Вы не можете начинать темы
Вы не можете отвечать на сообщения
Вы не можете редактировать свои сообщения
Вы не можете удалять свои сообщения
Вы не можете добавлять вложения

Перейти:  
Для Мосгорсуда, Роскомнадзора и рекламодателей: mosgorsud-torrent[собачка]yandex.ru
 Вход
ppkBB3cker v.2 © 2008-2014 @ PPK
[ Time : 0.057s | 13 Queries | GZIP : Off ]
CGP output time : 0.015s | 5 Queries | GZIP : Off

Торрент трекер RUTOR.IN, Не можете зайти на rutor.org? Какой новый адрес рутор? Какое зеркало рутор? Не работает rutor.org и зеркала? Тогда наш торрент специально для вас. Rutor.in неофициальное зеркало rutor. В случае если у Вас заблокирован rutor или вдруг Вы не можете на него зайти, то Вы без труда сможете скачать бесплатно и без рекламы последние новинки кино, игр, сериалов и прочего у нас, на Rutor.in. Не нужно использовать прокси, чтобы зайти на рутор, достаточно воспользоваться нашим ресурсом. Все новые фильмы, игры, сериалы, книги и музыка за 2013 и 2014 годы через торрент бесплатно. Скачивайте фильмы в хорошем качестве, игры для пк, xbox, playstation без регистрации. У нас вы найдете новые Зарубежные сериалы и Русские сериалы 2013, 2014, 2015 годов. Оставайтесь с нами, качайте любимые фильмы, игры, сериалы, книги и музыку.