img image001 image001 image001 image001 image001 image001 image001 image001 image001 image001 image001 image001 image001 image001 image001

Planets Sun Sun Sun
Статистика раздачи
Автор: Nickolas3434 | Размер: 33.44 ГБ | Добавлен: 30 окт 2015
Раздают: 73    Качают: 51
Скачать торрент
Скачать торрент
Описание торрента

СообщениеДобавлено: 30 окт 2015 

Информация о сериале
Название: Мыслить как преступник
Оригинальное название: Criminal Minds
Годы выхода: 2011-2012
Жанр: драма, криминал, детектив, триллер
Автор идеи: Джефф Дэвис /Jeff Davis/
Режиссеры: Гленн Кершоу /Glenn Kershaw/, Феликс Энрикез Алькала /Félix Enríquez Alcalá/, Эдвард Аллен Бернеро /Edward Allen Bernero/ и др.
В ролях: Джо Мантенья /Joe Mantegna/, Томас Гибсон /Thomas Gibson/, Пэйджет Брюстер /Paget Brewster/, Шемар Мур /Shemar Moore/, Мэттью Грей Гублер /Matthew Gray Gubler/, А.Дж. Кук /A.J. Cook/, Кирстен Вангснесс /Kirsten Vangsness/ и др.
О сериале:
Главные герои сериала - команда лучших следователей ФБР, способных понять и проанализировать ход мыслей самых изощрённых преступников, предугадать их дальнейшие поступки и тем самым предотвратить ужасные преступления. Когда обычные криминалисты заходят в тупик, на помощь им приходят специалисты по поведенческому анализу.
Вместо тщательного изучения улик они пытаются найти и понять мотивы преступления, досконально вникая в каждый шаг преступника и пытаясь мыслить, как он. Работая на месте преступления, эти профессионалы словно расследуют его изнутри, стараясь понять мысли преступника, какими бы тёмными они ни были.

Страна: США, Канада
Студии: The Mark Gordon Company / Paramount Network Television / ABC Studios
Продолжительность: 24 x ~ 00:43:00
Перевод: Профессиональный (многоголосый, закадровый) - Fox Crime
Файл
Кодек: H.264
Качество: WEB-DL 720p
Видео: 1280x720 at 23.976 fps, MPEG-4 AVC, ~4000 kbps avg
Аудио#1: Russian: 48 kHz, AC3, 2/0 (L,R) ch, ~192.00 kbps avg |Многоголосый закадровый, Fox Crime|
Аудио#2: English: 48 kHz, AC3, 3/2 (L,C,R,l,r) + LFE ch, ~384.00 kbps avg |Оригинал|
Субтитры: none

General
Complete name : Criminal.Minds.s07e01.rus(Fox Crime).eng.720p.web-dl It Takes a Village.mkv
Format : Matroska
Format version : Version 2
File size : 1.40 GiB
Duration : 42mn 36s
Overall bit rate : 4 689 Kbps
Encoded date : UTC 2012-03-28 01:42:50
Writing application : mkvmerge v5.2.0 ('I can't explain') built on Dec 18 2011 18:12:03
Writing library : libebml v1.2.3 + libmatroska v1.3.0
Video
ID : 1
Format : AVC
Format/Info : Advanced Video Codec
Format profile : High@L3.1
Format settings, CABAC : No
Format settings, ReFrames : 2 frames
Codec ID : V_MPEG4/ISO/AVC
Duration : 42mn 36s
Bit rate : 4 020 Kbps
Width : 1 280 pixels
Height : 720 pixels
Display aspect ratio : 16:9
Frame rate mode : Constant
Frame rate : 23.976 fps
Color space : YUV
Chroma subsampling : 4:2:0
Bit depth : 8 bits
Scan type : Progressive
Bits/(Pixel*Frame) : 0.182
Stream size : 1.20 GiB (86%)
Language : English
Default : Yes
Forced : No
Color range : Limited
Color primaries : BT.709
Transfer characteristics : BT.709
Matrix coefficients : BT.709
Audio #1
ID : 2
Format : AC-3
Format/Info : Audio Coding 3
Mode extension : CM (complete main)
Format settings, Endianness : Big
Codec ID : A_AC3
Duration : 42mn 36s
Bit rate mode : Constant
Bit rate : 192 Kbps
Channel(s) : 2 channels
Channel positions : Front: L R
Sampling rate : 48.0 KHz
Compression mode : Lossy
Stream size : 58.5 MiB (4%)
Title : Fox Crime
Language : Russian
Default : Yes
Forced : No
Audio #2
ID : 3
Format : AC-3
Format/Info : Audio Coding 3
Mode extension : CM (complete main)
Format settings, Endianness : Big
Codec ID : A_AC3
Duration : 42mn 36s
Bit rate mode : Constant
Bit rate : 384 Kbps
Channel(s) : 6 channels
Channel positions : Front: L C R, Side: L R, LFE
Sampling rate : 48.0 KHz
Compression mode : Lossy
Stream size : 117 MiB (8%)
Language : English
Default : No
Forced : No
01. It Takes a Village / Всем миром
02. Proof / Доказательство
03. Dorado Falls / Дорадо Фоллз
04. Painless / Безболезненный
05. From Childhood's Hour / С детства
06. Epilogue / Эпилог
07. There's No Place Like Home / Нет места лучше дома
08. Hope / Надежда
09. Self Fulfilling Prophecy / Накликанная беда
10. The Bittersweet Science / Горько-сладкая наука
11. True Genius / Истинный гений
12. Unknown Subject / Подозреваемый
13. Snake Eyes / Глаза змеи
14. Closing Time / Время закрытия
15. A Thin Line / Тонкая линия
16. A Family Affair / Семейное дело
17. I Love You, Tommy Brown / Я люблю тебя, Томми Браун
18. Foundation / Основа
19. Heathridge Manor / Усадьба Хитридж
20. The Company / Компания
21. Divining Rod / Волшебная лоза
22. Profiling 101 / Профиль 101
23. Hit / Бей
24. Run / Беги



   Похожие торренты   Торрент   Размер 
В этой теме нет новых непрочитанных сообщений. Мыслить как преступник / Criminal Minds [S07] (2011-2012) WEB-DLRip | Fox Crime

97 | 30

11.72 ГБ

В этой теме нет новых непрочитанных сообщений. Мыслить как преступник / Criminal Minds [S08] (2012) WEB-DL 720p | Fox Crime

0 | 6

32.39 ГБ

В этой теме нет новых непрочитанных сообщений. Мыслить как преступник / Criminal Minds [S06] (2010-2011) WEB-DL 720p | Fox Crime

47 | 33

33.21 ГБ

В этой теме нет новых непрочитанных сообщений. Мыслить как преступник / Criminal Minds [S08] (2012) WEB-DLRip | Fox Crime

32 | 13

11.72 ГБ

В этой теме нет новых непрочитанных сообщений. Мыслить как преступник / Criminal Minds [S06] (2010-2011) WEB-DLRip | Fox Crime

129 | 34

9.38 ГБ

В этой теме нет новых непрочитанных сообщений. Мыслить как преступник / Criminal Minds [S03] (2007-2008) WEB-DL 720p | Fox Crime, ДТВ

53 | 27

29.15 ГБ

В этой теме нет новых непрочитанных сообщений. Мыслить как преступник / Criminal Minds [S04] (2008-2009) WEB-DL 720p | Fox Crime

48 | 69

36.3 ГБ




Вы не можете начинать темы
Вы не можете отвечать на сообщения
Вы не можете редактировать свои сообщения
Вы не можете удалять свои сообщения
Вы не можете добавлять вложения

Перейти:  
Для Мосгорсуда, Роскомнадзора и рекламодателей: mosgorsud-torrent[собачка]yandex.ru
 Вход
ppkBB3cker v.2 © 2008-2014 @ PPK
[ Time : 1.724s | 18 Queries | GZIP : Off ]

cron