img image001 image001 image001 image001 image001 image001 image001 image001 image001 image001 image001 image001 image001 image001 image001

Planets Sun Sun Sun
Статистика раздачи
Автор: Nickolas3434 | Размер: 2.73 ГБ | Добавлен: 02 ноя 2015
Раздают: 655    Качают: 136
Скачать торрент
Скачать торрент
Описание торрента

СообщениеДобавлено: 02 ноя 2015 


Информация о фильме
Оригинальное название: Цена любви
Год выпуска: 2015
Жанр: Мелодрама
Режиссер: Александр Хван
В ролях: Анна Невская, Юрий Батурин, Анастасия Матвеева, Ольга Чудакова, Натали Старынкевич, Павел Крайнов, Александр Никитин (IV), Анастасия Бусыгина, Татьяна Чернопятова, Татьяна Васильева (V), Евгений Ермаков, Олег Юдин (III), Михаил Калгин, Александра Мельник, Константин Дзямко, Сергей Подольный, Сабина Гусейнова, Георгий Лежава, Юрий Сазонов, Александр Базоев, Сергей Калашников, Лариса Бурмистрова, Лариса Бедненко, Михаил Вологдин, Ольга Шуваева
О фильме: Преподаватель университета Елена однажды пришла к выводу, что в ее жизни больше нет простого женского счастья. Она замужем, раньше между ней и супругом была страсть и любовь, но, увы, быт беспощадно съел их. От развода Елену останавливает только дочь Катя. Но однажды в университете появляется Андрей. Молодой 20-летний парень вскружил голову Елене. Она не думает о разнице в возрасте, позабыв об обязательствах и репутации…
Выпущено: Россия, к/к Русское
Продолжительность: 2 x ~ 01:30:00
Перевод: Не требуется
Сэмпл
Файл
Качество: HDTVRip
Видео: XviD, ~ 1920 Кбит/с, 720х400
Аудио: AC3, 2 ch, 192 Кбит/с
General
Complete name : Y:раздачиChena love.2015.HDTVRip.RG.Russkie.serialy.&.Files-x\01.Chena love.2015.HDTVRip.RG.Russkie.serialy.&.Files-x.avi
Format : AVI
Format/Info : Audio Video Interleave
File size : 1.36 GiB
Duration : 1h 30mn
Overall bit rate : 2 156 Kbps
Writing application : VirtualDubMod 1.5.10.3 | www.virtualdub-fr.org || (build 2550/release)
Writing library : VirtualDubMod build 2550/release
Video
ID : 0
Format : MPEG-4 Visual
Format profile : Advanced Simple@L5
Format settings, BVOP : 1
Format settings, QPel : No
Format settings, GMC : No warppoints
Format settings, Matrix : Custom
Codec ID : XVID
Codec ID/Hint : XviD
Duration : 1h 30mn
Bit rate : 1 954 Kbps
Width : 720 pixels
Height : 400 pixels
Display aspect ratio : 16:9
Frame rate : 25.000 fps
Color space : YUV
Chroma subsampling : 4:2:0
Bit depth : 8 bits
Scan type : Progressive
Compression mode : Lossy
Bits/(Pixel*Frame) : 0.271
Stream size : 1.24 GiB (91%)
Writing library : XviD 73
Audio
ID : 1
Format : AC-3
Format/Info : Audio Coding 3
Mode extension : CM (complete main)
Format settings, Endianness : Big
Codec ID : 2000
Duration : 1h 30mn
Bit rate mode : Constant
Bit rate : 192 Kbps
Channel(s) : 2 channels
Channel positions : Front: L R
Sampling rate : 48.0 KHz
Compression mode : Lossy
Stream size : 124 MiB (9%)
Alignment : Split accross interleaves
Interleave, duration : 40 ms (1.00 video frame)
Interleave, preload duratio : 500 ms



Релиз от:



   Похожие торренты   Торрент   Размер 
В этой теме нет новых непрочитанных сообщений. Цена любви [01-02 из 02] (2015) HDTVRip-AVC от Files-x

164 | 35

2.77 ГБ

В этой теме нет новых непрочитанных сообщений. Цена любви [01-02 из 04] (2015) WEB-DLRip-AVC от Files-x

103 | 19

2.82 ГБ

В этой теме нет новых непрочитанных сообщений. Цена любви [01-02 из 04] (2015) WEB-DLRip-AVC от Files-x

10 | 1

2.14 ГБ

В этой теме нет новых непрочитанных сообщений. Цена любви [01-04 из 04] (2015) WEB-DLRip от Files-x

180 | 27

2.15 ГБ

В этой теме нет новых непрочитанных сообщений. Цена любви [01-02 из 02] (2015) HDTVRip-AVC

225 | 61

2.79 ГБ

В этой теме нет новых непрочитанных сообщений. Цена любви [01-02 из 02] (2015) HDTVRip 720p от MediaClub

97 | 18

7.38 ГБ

В этой теме нет новых непрочитанных сообщений. Цена любви [01-04 из 04] (2015) SATRip

1816 | 248

2.4 ГБ




Вы не можете начинать темы
Вы не можете отвечать на сообщения
Вы не можете редактировать свои сообщения
Вы не можете удалять свои сообщения
Вы не можете добавлять вложения

Перейти:  
Для Мосгорсуда, Роскомнадзора и рекламодателей: mosgorsud-torrent[собачка]yandex.ru
 Вход
ppkBB3cker v.2 © 2008-2014 @ PPK
[ Time : 0.039s | 15 Queries | GZIP : Off ]

cron