img image001 image001 image001 image001 image001 image001 image001 image001 image001 image001 image001 image001 image001 image001 image001

Planets Sun Sun Sun
Статистика раздачи
Автор: PriZraK | Размер: 1.03 ГБ | Добавлен: 04 ноя 2015
Раздают: 32    Качают: 8
Скачать торрент
Скачать торрент
Описание торрента

СообщениеДобавлено: 04 ноя 2015 



Информация о фильме
Название: Как я стал русским
Год выхода: 2015
Жанр: Комедия
Режиссёр: Константин Статский
В ролях: Матеуш Даменцкий, Сергей Чирков, Светлана Иванова, Александра Урсуляк, Анастасия Стежко, Виталий Хаев, Денис Пьянов, Никита Панфилов, Елизавета Кононова, Александра Кузенкина, Артем Лысков, Анастасия Акатова, Марина Маняхина, Татьяна Рыбинец, Александр Обласов, Владислав Дунаев

О фильме:
Сотрудник газеты American Post Алекс Уилсон отправляется в долгосрочную командировку в Россию, где ему предстоит не только ежедневно изучать удивительную российскую действительность, но и постепенно постигать загадочную русскую душу. Помимо выполнения редакционных заданий, Алекс заводит личный блог, где каждый день будет пытаться ответить на вопрос «что значит быть русским?»



Выпущено: Россия, MyWay Company, Yellow, Black & White
Продолжительность: ~ 00:25:00 / Серия
Язык: Русский

Файл
Качество: WEB-DLRip
Формат: AVI
Видео: XviD, 704x400 (16:9), ~ 1800 Кбит/с, 25 кадр/с, 0.266 bit/pixel
Аудио: Русский, MP3, 48000 Гц, 128 Кбит/с, 2 канала (Стерео)



Раздача ведётся путём добавления новых серий, при каждом добавлении создаётся новый торрент. Чтобы начать докачку новой серии, пользователям необходимо сделать следующее:

- Остановить скачивание.
- Удалить старый торрент у себя из клиента (старые серии удалять не надо).
- Скачать новый торрент и запустить его у себя в клиенте вместо старого, при этом указать клиенту путь в старую папку куда и должно происходить скачивание новых серий.

Ваш клиент при этом должен произвести хеширование (проверку) старой папки (если не производит сам - помогите ему сделать это), и будет докачивать только те серии которых у вас ещё нет. Старые серии при этом не удаляются, а продолжают раздаваться!
Если вы уже удалили старые серии, то предотвратить повторную закачку старых серий можно, отжав галочку в соответствующих местах при запуске нового торрента. По возможности, желательно не удалять старые серии как можно дольше, чтобы релизер не столько продолжал раздавать старые серии, а смог сконцентрироваться на новых.
General
Complete name : Kak.ya.stal.russkim.e02.WEB-DLRip.avi
Format : AVI
Format/Info : Audio Video Interleave
File size : 350 MiB
Duration : 24mn 21s
Overall bit rate : 2 011 Kbps
Writing application : VirtualDubMod 1.5.10.3 | www.virtualdub-fr.org || (build 2550/release)
Writing library : VirtualDubMod build 2550/release
Video
ID : 0
Format : MPEG-4 Visual
Format profile : Advanced Simple@L5
Format settings, BVOP : 1
Format settings, QPel : No
Format settings, GMC : No warppoints
Format settings, Matrix : Custom
Codec ID : XVID
Codec ID/Hint : XviD
Duration : 24mn 21s
Bit rate : 1 873 Kbps
Width : 704 pixels
Height : 400 pixels
Display aspect ratio : 16:9
Frame rate : 25.000 fps
Color space : YUV
Chroma subsampling : 4:2:0
Bit depth : 8 bits
Scan type : Progressive
Compression mode : Lossy
Bits/(Pixel*Frame) : 0.266
Stream size : 326 MiB (93%)
Writing library : XviD 73
Audio
ID : 1
Format : MPEG Audio
Format version : Version 1
Format profile : Layer 3
Codec ID : 55
Codec ID/Hint : MP3
Duration : 24mn 21s
Bit rate mode : Constant
Bit rate : 128 Kbps
Channel(s) : 2 channels
Sampling rate : 48.0 KHz
Compression mode : Lossy
Stream size : 22.3 MiB (6%)
Alignment : Aligned on interleaves
Interleave, duration : 40 ms (1.00 video frame)
Interleave, preload duration : 504 ms
Writing library : LAME3.99r
Encoding settings : -m s -V 4 -q 0 -lowpass 17 -b 128


Автор рипа - ivandubskoj



   Похожие торренты   Торрент   Размер 
В этой теме нет новых непрочитанных сообщений. Как я стал русским [01-04 из 20] (2015) WEB-DLRip от ivandubskoj

66 | 39

1.37 ГБ

В этой теме нет новых непрочитанных сообщений. Как я стал русским [01x01-13 из 20] (2015) WEB-DLRip | КПК

22 | 2

1.41 ГБ

В этой теме нет новых непрочитанных сообщений. Как я стал русским [01-05 из 20] (2015) WEB-DLRip-AVC от Files-x

285 | 136

1.55 ГБ

В этой теме нет новых непрочитанных сообщений. Как я стал русским [01-07 из 20] (2015) WEB-DLRip-AVC от Files-x

75 | 72

2.16 ГБ

В этой теме нет новых непрочитанных сообщений. Как я стал русским [01x01-09 из 20] (2015) WEB-DLRip | КПК

47 | 59

1000.21 МБ

В этой теме нет новых непрочитанных сообщений. Как я стал русским [01-06 из 20] (2015) WEB-DLRip-AVC от Files-x

25 | 15

1.86 ГБ

В этой теме нет новых непрочитанных сообщений. Как я стал русским [01-02 из 20] (2015) WEB-DLRip-AVC от Files-x

22 | 5

663.56 МБ




Вы не можете начинать темы
Вы не можете отвечать на сообщения
Вы не можете редактировать свои сообщения
Вы не можете удалять свои сообщения
Вы не можете добавлять вложения

Перейти:  
Для Мосгорсуда, Роскомнадзора и рекламодателей: mosgorsud-torrent[собачка]yandex.ru
 Вход
ppkBB3cker v.2 © 2008-2014 @ PPK
[ Time : 0.058s | 15 Queries | GZIP : Off ]

cron