img image001 image001 image001 image001 image001 image001 image001 image001 image001 image001 image001 image001 image001 image001 image001

Planets Sun Sun Sun
Статистика раздачи
Автор: PriZraK | Размер: 4.6 ГБ | Добавлен: 05 ноя 2015
Раздают: 382    Качают: 244
Скачать торрент
Скачать торрент
Описание торрента

СообщениеДобавлено: 05 ноя 2015 



Информация о фильме
Оригинальное название: 33 квадратных метра
Год выхода: 1999
Жанр: Комедия
Режиссер: Пётр Штейн, Николай Семёнов, Леонид Коновалов, Александр Бачило, Константин Наумочкин, Михаил Щедринский
В ролях: Татьяна Лазарева, Михаил Шац, Павел Кабанов, Сергей Белоголовцев, Андрей Бочаров, Анна Цуканова, Маргарита Митрофанова, Олег Комаров (II), Василий Антонов, Александр Толоконников

О фильме:
Cериал о типичной российской семье Звездуновых: об инженере Сергее, мечтающем о смерти тёщи, о его жене Татьяне, чей брак — сплошная катастрофа, об их странноватом сыне Андрюше и о дворянке-коммунистке бабушке Кларе Захаровне.



01. Курортный роман
02. Репетитор
03. Секунданты решают все
04. Наезд
05. Маньяк у обочины
06. Визит доктора
07. Рэкет
08. Космический волк
09. Родная кровь
10. Рыболов-спортсмен
11. Гамлет, принц дачный
12. Смотрины
13. Малыш и его К, часть 1
14. Малыш и его К, часть 2
15. Береги автомобиль
16. Психоаналитик, часть 1
17. Психоаналитик, часть 2
18. Отец невесты, часть 1
19. Отец невесты, часть 2
20. Один день Ивана Денисовича
21. Купите дедушку
22. Летний призыв
23. Собака Звездуновых
24. Возвращение Бармалея
25. Почтальон стучит дважды
26. Приподнятая целина
27. Женитьба Николая
28. Хождение по лесу
29. Пиковая бабка
30. Трудоустройство
Дачные истории
31. Про то, как папа строил забор
32. Про Тимура и его команду
33. Про любовь
34. Про клубнику
35. Про рыбалку
36. Про зарядку
37. Про корт и маракуйю…
38. Про президента
39. Елка в семье Звездуновых
40. Находка для шпиона
41. Джентльмены у дачи

Страна: Россия
Студия: О. С. П.
Продолжительность: 41 x ~ 00:26:00
Перевод: Не требуется

Файл
Формат: MP4
Качество: DVDRip | КПК
Видео: MPEG-4 AVC (x264), 640x480, 640x432, 640x384, ~500 kbps, 25.000 fps
Аудио: AAC LC, 48.0 KHz, 2 ch, 128 Kbps
Субтитры: Нет

Семпл


Complete name : E:Kino33.M2.(01-41.serii).1999-2004.AVC.DVDRip.KPK.GF33.M2.(05.serija.iz.41).AVC.DVDRip.KPK.GF.mp4
Format : MPEG-4
Codec ID : M4V
File size : 118 MiB
Duration : 26mn 6s
Overall bit rate mode : Variable
Overall bit rate : 634 Kbps
Writing application : Lavf53.19.0

Video
ID : 1
Format : AVC
Format/Info : Advanced Video Codec
Format profile : High@L4.1
Format settings, CABAC : Yes
Format settings, ReFrames : 8 frames
Codec ID : avc1
Codec ID/Info : Advanced Video Coding
Duration : 26mn 6s
Bit rate : 500 Kbps
Width : 640 pixels
Height : 480 pixels
Display aspect ratio : 4:3
Frame rate mode : Constant
Frame rate : 25.000 fps
Color space : YUV
Chroma subsampling : 4:2:0
Bit depth : 8 bits
Scan type : Progressive
Bits/(Pixel*Frame) : 0.065
Stream size : 93.5 MiB (79%)
Writing library : x264 core 130 r2273 b3065e6
Encoding settings : cabac=1 / ref=8 / deblock=1:-1:-1 / analyse=0x3:0x133 / me=umh / subme=10 / psy=1 / psy_rd=1.00:0.00 / mixed_ref=1 / me_range=24 / chroma_me=1 / trellis=2 / 8x8dct=1 / cqm=0 / deadzone=21,11 / fast_pskip=1 / chroma_qp_offset=-2 / threads=3 / lookahead_threads=1 / sliced_threads=0 / nr=0 / decimate=1 / interlaced=0 / bluray_compat=0 / constrained_intra=0 / bframes=8 / b_pyramid=2 / b_adapt=2 / b_bias=0 / direct=3 / weightb=1 / open_gop=0 / weightp=2 / keyint=250 / keyint_min=126 / scenecut=40 / intra_refresh=0 / rc_lookahead=40 / rc=2pass / mbtree=1 / bitrate=500 / ratetol=1.0 / qcomp=0.60 / qpmin=0 / qpmax=69 / qpstep=4 / cplxblur=20.0 / qblur=0.5 / ip_ratio=1.40 / aq=1:1.00

Audio
ID : 2
Format : AAC
Format/Info : Advanced Audio Codec
Format profile : LC
Codec ID : 40
Duration : 26mn 6s
Bit rate mode : Variable
Bit rate : 128 Kbps
Channel(s) : 2 channels
Channel positions : Front: L R
Sampling rate : 48.0 KHz
Compression mode : Lossy
Stream size : 23.9 MiB (20%)

Релиз от:



   Похожие торренты   Торрент   Размер 
В этой теме нет новых непрочитанных сообщений. 33 квадратных метра, Дачные истории, О.С.П.-Студия (1997-2003) DVDRip

35 | 114

41.6 ГБ

В этой теме нет новых непрочитанных сообщений. 72 метра (2004) DVDRip

324 | 12

1.37 ГБ

В этой теме нет новых непрочитанных сообщений. 72 метра (2004) DVDRip

469 | 16

744.2 МБ

В этой теме нет новых непрочитанных сообщений. 72 метра (2004) DVDRip от KINOREAKTOR

198 | 9

2.05 ГБ

В этой теме нет новых непрочитанных сообщений. Три метра над небом / Tre metri sopra il cielo (2004) DVDRip

26 | 4

1.37 ГБ

В этой теме нет новых непрочитанных сообщений. Три метра над уровнем неба: Я тебя хочу / Tengo ganas de ti / I Want You (2012) DVDRip | КПК от Generalfilm

105 | 6

407.75 МБ

В этой теме нет новых непрочитанных сообщений. Три метра над уровнем неба / Tres metros sobre el cielo / Three Steps Above Heaven (2010) DVDRip | КПК от Generalfilm

57 | 8

403.16 МБ




Вы не можете начинать темы
Вы не можете отвечать на сообщения
Вы не можете редактировать свои сообщения
Вы не можете удалять свои сообщения
Вы не можете добавлять вложения

Перейти:  
Для Мосгорсуда, Роскомнадзора и рекламодателей: mosgorsud-torrent[собачка]yandex.ru
 Вход
ppkBB3cker v.2 © 2008-2014 @ PPK
[ Time : 0.060s | 15 Queries | GZIP : Off ]

cron