img image001 image001 image001 image001 image001 image001 image001 image001 image001 image001 image001 image001 image001 image001 image001 image001
Planets Sun Sun Sun
Статистика раздачи
Автор: Nickolas3434 | Размер: 1.91 ГБ | Добавлен: 06 ноя 2015
Раздают: 27    Качают: 47
Скачать торрент
Скачать торрент
Описание торрента

СообщениеДобавлено: 06 ноя 2015 


Информация о фильме
Оригинальное название: Квест
Год выпуска: 2015
Жанр: Детектив, криминал, приключения
Режиссер: Андрей Загидуллин, Александр Данилов
В ролях: Павел Прилучный, Агата Муцениеце, Марина Петренко, Илья Иосифов, Михаил Евланов, Петр Рыков, Алексей Франдетти, Виктория Корлякова, Роман Волобуев
О фильме:
Они не знали друг друга до того дня, пока в одном московском клубе их не отравили неизвестным ядом. И теперь тем из них, кто не умер на месте, а получил отложенную на 72 часа смерть, предстоит выполнить несколько заданий загадочного кукловода, который единственный в мире имеет антидот. Если задания будут выполнены, то наградой для выживших станет противоядие. В роли «карты острова сокровищ» — мистическое, полное сюрпризов наследие Якова Брюса — сподвижника Петра I, слывшего в народе колдуном и чернокнижником. Однако чтобы завладеть этим наследием, героям предстоит пройти вполне реальные испытания, которые некоторым из них будут стоить жизни. Опасный квест с первых же минут оправдывает себя — герои погружаются в мир тайн прошлого, о котором мало кто знает из современников. Одна загадка переплетается с другой, современная жизнь перемешивается с прошлым. Оказывается, в Москве полно странных загадок и тайн, которым позавидовал бы сам профессор Роберт Лэнгдон из «Кода да Винчи».
Выпущено: Россия, СТС
Продолжительность: 7 x ~ 00:45:00
Перевод: Не требуется
Файл
Качество: WEB-DLRip
Видео: XviD, ~ 760 Кбит/с, 688x384
Аудио: MP3, 2 ch, 128 Кбит/с
Общее
Полное имя : Kvest.(16.serij.iz.16).2015.XviD.WEB-DLRip.by.GeneralFilm�2.serija.avi
Формат : AVI
Формат/Информация : Audio Video Interleave
Размер файла : 279 Мбайт
Продолжительность : 43 м.
Общий поток : 898 Кбит/сек
Программа кодирования : VirtualDubMod 1.5.10.3 | www.virtualdub-fr.org || (build 2550/release)
Библиотека кодирования : VirtualDubMod build 2550/release
Видео
Идентификатор : 0
Формат : MPEG-4 Visual
Профиль формата : Advanced Simple@L5
Параметр BVOP формата : 1
Параметр QPel формата : Нет
Параметр GMC формата : Без точки перехода
Параметр матрицы формата : Выборочная
Идентификатор кодека : XVID
Идентификатор кодека/Подсказка : XviD
Продолжительность : 43 м.
Битрейт : 760 Кбит/сек
Ширина : 688 пикселей
Высота : 384 пикселя
Соотношение сторон : 16:9
Частота кадров : 25,000 кадров/сек
Цветовое пространство : YUV
Субдискретизация насыщенности : 4:2:0
Битовая глубина : 8 бит
Тип развёртки : Прогрессивная
Метод сжатия : С потерями
Бит/(Пиксели*Кадры) : 0.115
Размер потока : 236 Мбайт (85%)
Библиотека кодирования : XviD 73
Аудио
Идентификатор : 1
Формат : MPEG Audio
Версия формата : Version 1
Профиль формата : Layer 3
Идентификатор кодека : 55
Идентификатор кодека/Подсказка : MP3
Продолжительность : 43 м.
Вид битрейта : Постоянный
Битрейт : 128 Кбит/сек
Каналы : 2 канала
Частота : 48,0 КГц
Метод сжатия : С потерями
Размер потока : 39,8 Мбайт (14%)
Выравнивание : Соединение по промежуткам
Продолжительность промежутка : 40 мс. (1,00 видеокадр)
Время предзагрузки промежутка : 504 мс.
Библиотека кодирования : LAME3.99r
Настройки программы : -m s -V 4 -q 0 -lowpass 17 -b 128








Релиз от:



   Похожие торренты   Торрент   Размер 
В этой теме нет новых непрочитанных сообщений. Квест [01-05 из 16] (2015) WEB-DLRip от GeneralFilm

36 | 17

1.36 ГБ

В этой теме нет новых непрочитанных сообщений. Квест [01-06 из 16] (2015) WEB-DLRip от GeneralFilm

54 | 63

1.63 ГБ

В этой теме нет новых непрочитанных сообщений. Квест [01-04 из 16] (2015) WEB-DLRip от GeneralFilm

123 | 62

1.09 ГБ

В этой теме нет новых непрочитанных сообщений. Квест [S01] (2015) WEB-DLRip от Generalfilm | КПК

3 | 0

1.54 ГБ

В этой теме нет новых непрочитанных сообщений. Квест [01-03 из 16] (2015) WEB-DLRip от GeneralFilm

68 | 20

837.25 МБ

В этой теме нет новых непрочитанных сообщений. Квест [01-02 из 16] (2015) WEB-DLRip от GeneralFilm

19 | 12

558.44 МБ

В этой теме нет новых непрочитанных сообщений. Квест [01-08 из 16] (2015) WEB-DLRip от GeneralFilm

500 | 131

2.18 ГБ




Вы не можете начинать темы
Вы не можете отвечать на сообщения
Вы не можете редактировать свои сообщения
Вы не можете удалять свои сообщения
Вы не можете добавлять вложения

Перейти:  
Для Мосгорсуда, Роскомнадзора и рекламодателей: mosgorsud-torrent[собачка]yandex.ru
 Вход
ppkBB3cker v.2 © 2008-2014 @ PPK
[ Time : 3.586s | 15 Queries | GZIP : Off ]

cron