img image001 image001 image001 image001 image001 image001 image001 image001 image001 image001 image001 image001 image001 image001 image001

Planets Sun Sun Sun
Статистика раздачи
Автор: Nickolas3434 | Размер: 4.36 ГБ | Добавлен: 06 ноя 2015
Раздают: 654    Качают: 502
Скачать торрент
Скачать торрент
Описание торрента

СообщениеДобавлено: 06 ноя 2015 


Информация о фильме
Название: Великая
Год выхода: 2015
Жанр: Драма, история
Режиссер: Игорь Зайцев
В ролях: Юлия Снигирь, Павел Деревянко, Сергей Шакуров, Наталья Суркова, Роман Мадянов, Марк Богатырёв, Светлана Фролова, Ольга Медынич, Павел Трубинер, Виктор Раков, Семён Стругачёв, Станислав Любшин, Виктор Тереля, Дмитрий Ульянов, Рихард Леперс, Илья Носков, Валерий Кухарешин, Владимир Матвеев, Эрнст Романов, Дмитрий Быковский-Ромашов, Иван Батарев, Светлана Смирнова-Кацагаджиева, Михаил Сидаш, Иван Шмаков, Леонид Ворон, Фитц ван Том, Сергей Горобченко
О фильме:
15-летняя прусская принцесса София Фредерика прибывает в Россию, чтобы выйти замуж за наследника российского престола Петра III. Перейдя в православную веру, она получает имя Екатерина. Брак не приносит счастья: супруг ненавидит ее. Но императрице Елизавете Петровне нужен наследник, способный править огромной страной, так как капризный и неуравновешенный Петр не подходит на роль Российского Императора. После семи лет тягостного супружества Екатерина рожает сына. Но действующая императрица забирает маленького Павла на воспитание. Разлученная с ребенком и лишенная единственного шанса на женское счастье, Екатерина намерена бороться. Она ищет союзников среди тех, кто не хочет видеть Петра на престоле...

Страна: Россия
Продолжительность: 12 x ~ 00:45:00
Язык: Русский
Файл
Качество: WEB-DLRip
Формат: AVI
Видео: XviD, 900 Кбит/с, 688x384
Звук: MP3, 2 ch, 128 Кбит/с
Общее
Полное имя : Velikaja.(12.serii.iz.12).2014.XviD.WEB-DLRip.by.GeneralFilm�1.serija.avi
Формат : AVI
Формат/Информация : Audio Video Interleave
Размер файла : 372 Мбайт
Продолжительность : 48 м.
Общий поток : 1067 Кбит/сек
Программа кодирования : VirtualDubMod 1.5.10.3 | www.virtualdub-fr.org || (build 2550/release)
Библиотека кодирования : VirtualDubMod build 2550/release
Видео
Идентификатор : 0
Формат : MPEG-4 Visual
Профиль формата : Advanced Simple@L5
Параметр BVOP формата : 1
Параметр QPel формата : Нет
Параметр GMC формата : Без точки перехода
Параметр матрицы формата : Выборочная
Идентификатор кодека : XVID
Идентификатор кодека/Подсказка : XviD
Продолжительность : 48 м.
Битрейт : 930 Кбит/сек
Ширина : 688 пикселей
Высота : 384 пикселя
Соотношение сторон : 16:9
Частота кадров : 25,000 кадров/сек
Цветовое пространство : YUV
Субдискретизация насыщенности : 4:2:0
Битовая глубина : 8 бит
Тип развёртки : Прогрессивная
Метод сжатия : С потерями
Бит/(Пиксели*Кадры) : 0.141
Размер потока : 324 Мбайт (87%)
Библиотека кодирования : XviD 73
Аудио
Идентификатор : 1
Формат : MPEG Audio
Версия формата : Version 1
Профиль формата : Layer 3
Идентификатор кодека : 55
Идентификатор кодека/Подсказка : MP3
Продолжительность : 48 м.
Вид битрейта : Постоянный
Битрейт : 128 Кбит/сек
Каналы : 2 канала
Частота : 44,1 КГц
Метод сжатия : С потерями
Размер потока : 44,6 Мбайт (12%)
Выравнивание : Разделение по промежуткам
Продолжительность промежутка : 40 мс. (1,00 видеокадр)
Время предзагрузки промежутка : 500 мс.
Библиотека кодирования : LAME3.99r
Настройки программы : -m s -V 4 -q 0 -lowpass 17 -b 128










Релиз от:



   Похожие торренты   Торрент   Размер 
В этой теме нет новых непрочитанных сообщений. Великая [01-04 из 12] (2015) WEB-DLRip от GeneralFilm

50 | 16

1.45 ГБ

В этой теме нет новых непрочитанных сообщений. Великая [01-02 из 12] (2015) HDTVRip от GeneralFilm

335 | 181

2.73 ГБ

В этой теме нет новых непрочитанных сообщений. Великая [01-02 из 12] (2015) HDTVRip от GeneralFilm

388 | 114

1.36 ГБ

В этой теме нет новых непрочитанных сообщений. Великая [01-02 из 12] (2015) HDTV 1080i от GeneralFilm

144 | 85

10.44 ГБ

В этой теме нет новых непрочитанных сообщений. Великая [01-02 из 12] (2015) HDTV 1080i от GeneralFilm

149 | 35

5.35 ГБ

В этой теме нет новых непрочитанных сообщений. Великая [01-12 из 12] (2015) WEB-DLRip | КПК

1160 | 397

2.59 ГБ

В этой теме нет новых непрочитанных сообщений. Екатерина Великая. Женская доля (2015) HDTVRip от GeneralFilm

351 | 56

715.77 МБ




Вы не можете начинать темы
Вы не можете отвечать на сообщения
Вы не можете редактировать свои сообщения
Вы не можете удалять свои сообщения
Вы не можете добавлять вложения

Перейти:  
Для Мосгорсуда, Роскомнадзора и рекламодателей: mosgorsud-torrent[собачка]yandex.ru
 Вход
ppkBB3cker v.2 © 2008-2014 @ PPK
[ Time : 0.178s | 16 Queries | GZIP : Off ]

Торрент трекер RUTOR.IN, Не можете зайти на rutor.org? Какой новый адрес рутор? Какое зеркало рутор? Не работает rutor.org и зеркала? Тогда наш торрент специально для вас. Rutor.in неофициальное зеркало rutor. В случае если у Вас заблокирован rutor или вдруг Вы не можете на него зайти, то Вы без труда сможете скачать бесплатно и без рекламы последние новинки кино, игр, сериалов и прочего у нас, на Rutor.in. Не нужно использовать прокси, чтобы зайти на рутор, достаточно воспользоваться нашим ресурсом. Все новые фильмы, игры, сериалы, книги и музыка за 2013 и 2014 годы через торрент бесплатно. Скачивайте фильмы в хорошем качестве, игры для пк, xbox, playstation без регистрации. У нас вы найдете новые Зарубежные сериалы и Русские сериалы 2013, 2014, 2015 годов. Оставайтесь с нами, качайте любимые фильмы, игры, сериалы, книги и музыку.