img image001 image001 image001 image001 image001 image001 image001 image001 image001 image001 image001 image001 image001 image001 image001

Planets Sun Sun Sun
Статистика раздачи
Автор: Nickolas3434 | Размер: 2.91 ГБ | Добавлен: 09 ноя 2015
Раздают: 132    Качают: 52
Скачать торрент
Скачать торрент
Описание торрента

СообщениеДобавлено: 09 ноя 2015 

Год выпуска: 2004
Страна: Россия
Студия: НТВ-кино
Жанр: боевик, криминал, детектив
Продолжительность: 8 серий ~ по 48 мин.
Перевод: не требуется
Субтитры: нет
Оригинальная аудиодорожка: русский
Режиссер: Вадим Шмелев
В ролях:
Павел Майков, Екатерина Семёнова, Андрей Градов, Олег Штефанко, Борис Невзоров, Сергей Жигунов, Сергей Пенкин, Лев Прыгунов, Павел Сметанкин, Михаил Дорожкин, Софья Ардова, Александр Тютин, Марина Черняева, Тарас Бибич, Андрей Рапопорт, Анатолий Котенёв, Сергей Гирин, Леонид Тимцуник, Богдан Берзиньш, Валентина Шендрикова...
Полный список актёров
Описание:
Элитный дом в престижном районе города. Двадцать этажей, двести квартир, несколько сотен жильцов. Однажды утром все его обитатели получают странное письмо от человека, называющего себя Игрок: «Вы должны собрать выкуп – один миллион долларов через три дня, иначе я буду убивать по одному жильцу каждый день. Я готовился к этой операции целый год, прятаться и бежать бесполезно, вам не спастись». И люди начинают гибнуть...





Исходник: 2xDVD9 R5
Качество видео: DVDRip
Формат видео: AVI
Видео: 672х352 (1,909:1), 25 fps, XviD ~ 941 kbps avg, 0.159 bit/pixel
Аудио: 48 kHz, MP3 2.0, 128 kbps
Раздача от:
Общее
Полное имя : Igra.na.vybyvanie.2004.DVDRip_[New-team]_by_AVP_Studio\06.avi
Формат : AVI
Формат/Информация : Audio Video Interleave
Размер файла : 372 Мбайт
Продолжительность : 48 м.
Общий поток : 1079 Кбит/сек
Программа кодирования : VirtualDubMod 1.5.10.3 | www.virtualdub-fr.org || (build 2550/release)
Библиотека кодирования : VirtualDubMod build 2550/release
Видео
Идентификатор : 0
Формат : MPEG-4 Visual
Профиль формата : Advanced Simple@L5
Параметр BVOP формата : 1
Параметр QPel формата : Нет
Параметр GMC формата : Без точки перехода
Параметр матрицы формата : Выборочная
Идентификатор кодека : XVID
Идентификатор кодека/Подсказка : XviD
Продолжительность : 48 м.
Битрейт : 941 Кбит/сек
Ширина : 672 пикселя
Высота : 352 пикселя
Соотношение сторон : 1,909
Частота кадров : 25,000 кадров/сек
Цветовое пространство : YUV
Субдискретизация насыщенности : 4:2:0
Битовая глубина : 8 бит
Тип развёртки : Прогрессивная
Метод сжатия : С потерями
Бит/(Пиксели*Кадры) : 0.159
Размер потока : 325 Мбайт (87%)
Библиотека кодирования : XviD 73
Аудио
Идентификатор : 1
Формат : MPEG Audio
Версия формата : Version 1
Профиль формата : Layer 3
Идентификатор кодека : 55
Идентификатор кодека/Подсказка : MP3
Продолжительность : 48 м.
Вид битрейта : Постоянный
Битрейт : 128 Кбит/сек
Каналы : 2 канала
Частота : 48,0 КГц
Метод сжатия : С потерями
Размер потока : 44,2 Мбайт (12%)
Выравнивание : Соединение по промежуткам
Продолжительность промежутка : 40 мс. (1,00 видеокадр)
Время предзагрузки промежутка : 504 мс.
Библиотека кодирования : LAME3.99r
Настройки программы : -m s -V 4 -q 2 -lowpass 17 -b 128





   Похожие торренты   Торрент   Размер 
В этой теме нет новых непрочитанных сообщений. Игра на выбывание [01-08 из 08] (2004) DVDRip-AVC от New-Team

214 | 65

4.36 ГБ

В этой теме нет новых непрочитанных сообщений. Игра на выбывание [01-08 из 08] (2004) 2 x DVD9 от New-Team | Лицензия

6 | 9

14 ГБ

В этой теме нет новых непрочитанных сообщений. Игра на выбывание [01-08 из 08] (2004) 2*DVD5 | custom

3 | 2

8.7 ГБ

В этой теме нет новых непрочитанных сообщений. Арабская весна: игра на выбывание (2012) SATRip

2 | 4

808.65 МБ

В этой теме нет новых непрочитанных сообщений. Пила. Игра на выживание / Saw (2004) DVD9 от New-Team | D

0 | 2

7.28 ГБ

В этой теме нет новых непрочитанных сообщений. Чаки: Детская игра / Child's Play (Антология) (1988-2004) DVDRip

59 | 48

3.53 ГБ

В этой теме нет новых непрочитанных сообщений. Грязная игра / The Skin Game (1931) DVDRip от New-Team

34 | 2

1.46 ГБ




Вы не можете начинать темы
Вы не можете отвечать на сообщения
Вы не можете редактировать свои сообщения
Вы не можете удалять свои сообщения
Вы не можете добавлять вложения

Перейти:  
Для Мосгорсуда, Роскомнадзора и рекламодателей: mosgorsud-torrent[собачка]yandex.ru
 Вход
ppkBB3cker v.2 © 2008-2014 @ PPK
[ Time : 0.048s | 15 Queries | GZIP : Off ]

Торрент трекер RUTOR.IN, Не можете зайти на rutor.org? Какой новый адрес рутор? Какое зеркало рутор? Не работает rutor.org и зеркала? Тогда наш торрент специально для вас. Rutor.in неофициальное зеркало rutor. В случае если у Вас заблокирован rutor или вдруг Вы не можете на него зайти, то Вы без труда сможете скачать бесплатно и без рекламы последние новинки кино, игр, сериалов и прочего у нас, на Rutor.in. Не нужно использовать прокси, чтобы зайти на рутор, достаточно воспользоваться нашим ресурсом. Все новые фильмы, игры, сериалы, книги и музыка за 2013 и 2014 годы через торрент бесплатно. Скачивайте фильмы в хорошем качестве, игры для пк, xbox, playstation без регистрации. У нас вы найдете новые Зарубежные сериалы и Русские сериалы 2013, 2014, 2015 годов. Оставайтесь с нами, качайте любимые фильмы, игры, сериалы, книги и музыку.