img image001 image001 image001 image001 image001 image001 image001 image001 image001 image001 image001 image001 image001 image001 image001

Planets Sun Sun Sun
Статистика раздачи
Автор: Nickolas3434 | Размер: 4.36 ГБ | Добавлен: 09 ноя 2015
Раздают: 321    Качают: 102
Скачать торрент
Скачать торрент
Описание торрента

СообщениеДобавлено: 09 ноя 2015 

Год выпуска: 2004
Страна: Россия
Студия: НТВ-кино
Жанр: боевик, криминал, детектив
Продолжительность: 8 серий ~ по 48 мин.
Перевод: не требуется
Субтитры: нет
Оригинальная аудиодорожка: русский
Режиссер: Вадим Шмелев
В ролях:
Павел Майков, Екатерина Семёнова, Андрей Градов, Олег Штефанко, Борис Невзоров, Сергей Жигунов, Сергей Пенкин, Лев Прыгунов, Павел Сметанкин, Михаил Дорожкин, Софья Ардова, Александр Тютин, Марина Черняева, Тарас Бибич, Андрей Рапопорт, Анатолий Котенёв, Сергей Гирин, Леонид Тимцуник, Богдан Берзиньш, Валентина Шендрикова...
Полный список актёров
Описание:
Элитный дом в престижном районе города. Двадцать этажей, двести квартир, несколько сотен жильцов. Однажды утром все его обитатели получают странное письмо от человека, называющего себя Игрок: «Вы должны собрать выкуп – один миллион долларов через три дня, иначе я буду убивать по одному жильцу каждый день. Я готовился к этой операции целый год, прятаться и бежать бесполезно, вам не спастись». И люди начинают гибнуть...






Исходник: 2xDVD9 R5
Качество видео: DVDRip-AVC
Формат видео: MKV
Видео: 704->762х412 (1,85:1), 25 fps, H264 ~ 1424 kbps avg, 0.196 bit/pixel
Аудио: 48 kHz, Dolby Digital AC3 2.0, 192 kbps
Раздача от:
Общее
Полное имя : Igra.na.vybyvanie.2004.DVDRip-AVC_[New-team]_by_AVP_Studio5.mkv
Формат : Matroska
Версия формата : Version 2
Размер файла : 554 Мбайт
Продолжительность : 47 м.
Общий поток : 1618 Кбит/сек
Дата кодирования : UTC 2015-11-07 17:25:34
Программа кодирования : mkvmerge v6.1.0 ('Old Devil') built on Mar 4 2013 09:10:42
Библиотека кодирования : libebml v1.3.0 + libmatroska v1.4.0
Видео
Идентификатор : 1
Формат : AVC
Формат/Информация : Advanced Video Codec
Профиль формата : High@L4.1
Параметр CABAC формата : Да
Параметр ReFrames формата : 10 кадров
Идентификатор кодека : V_MPEG4/ISO/AVC
Продолжительность : 47 м.
Битрейт : 1424 Кбит/сек
Ширина : 704 пикселя
Высота : 412 пикселей
Соотношение сторон : 1,85:1
Режим частоты кадров : Постоянный
Частота кадров : 25,000 кадров/сек
Цветовое пространство : YUV
Субдискретизация насыщенности : 4:2:0
Битовая глубина : 8 бит
Тип развёртки : Прогрессивная
Бит/(Пиксели*Кадры) : 0.196
Размер потока : 477 Мбайт (86%)
Библиотека кодирования : x264 core 148 r2597 e86f3a1
Настройки программы : cabac=1 / ref=10 / deblock=1:-2:-1 / analyse=0x3:0x113 / me=umh / subme=10 / psy=1 / psy_rd=1.00:0.00 / mixed_ref=1 / me_range=32 / chroma_me=1 / trellis=2 / 8x8dct=1 / cqm=0 / deadzone=21,11 / fast_pskip=1 / chroma_qp_offset=-2 / threads=6 / lookahead_threads=1 / sliced_threads=0 / nr=0 / decimate=0 / interlaced=0 / bluray_compat=0 / constrained_intra=0 / bframes=8 / b_pyramid=2 / b_adapt=2 / b_bias=0 / direct=3 / weightb=1 / open_gop=0 / weightp=2 / keyint=250 / keyint_min=25 / scenecut=40 / intra_refresh=0 / rc=2pass / mbtree=0 / bitrate=1424 / ratetol=1.0 / qcomp=0.60 / qpmin=0 / qpmax=69 / qpstep=4 / cplxblur=20.0 / qblur=0.5 / ip_ratio=1.40 / pb_ratio=1.30 / aq=1:1.00
Default : Да
Forced : Нет
Аудио
Идентификатор : 2
Формат : AC-3
Формат/Информация : Audio Coding 3
Расширение режима : CM (complete main)
Параметр Endianness формата : Big
Идентификатор кодека : A_AC3
Продолжительность : 47 м.
Вид битрейта : Постоянный
Битрейт : 192 Кбит/сек
Каналы : 2 канала
Расположение каналов : Front: L R
Частота : 48,0 КГц
Метод сжатия : С потерями
Размер потока : 65,7 Мбайт (12%)
Default : Да
Forced : Нет





   Похожие торренты   Торрент   Размер 
В этой теме нет новых непрочитанных сообщений. Игра на выбывание [01-08 из 08] (2004) DVDRip от New-Team

292 | 100

2.91 ГБ

В этой теме нет новых непрочитанных сообщений. Игра на выбывание [01-08 из 08] (2004) 2 x DVD9 от New-Team | Лицензия

6 | 9

14 ГБ

В этой теме нет новых непрочитанных сообщений. Игра на выбывание [01-08 из 08] (2004) 2*DVD5 | custom

3 | 2

8.7 ГБ

В этой теме нет новых непрочитанных сообщений. Арабская весна: игра на выбывание (2012) SATRip

2 | 4

808.65 МБ

В этой теме нет новых непрочитанных сообщений. Пила. Игра на выживание / Saw (2004) DVD9 от New-Team | D

0 | 2

7.28 ГБ

В этой теме нет новых непрочитанных сообщений. Грязная игра / The Skin Game (1931) DVDRip от New-Team

34 | 2

1.46 ГБ

В этой теме нет новых непрочитанных сообщений. Грязная игра / The Skin Game (1931) DVDRip от New-Team

15 | 2

742.59 МБ




Вы не можете начинать темы
Вы не можете отвечать на сообщения
Вы не можете редактировать свои сообщения
Вы не можете удалять свои сообщения
Вы не можете добавлять вложения

Перейти:  
Для Мосгорсуда, Роскомнадзора и рекламодателей: mosgorsud-torrent[собачка]yandex.ru
 Вход
ppkBB3cker v.2 © 2008-2014 @ PPK
[ Time : 0.527s | 17 Queries | GZIP : Off ]

Торрент трекер RUTOR.IN, Не можете зайти на rutor.org? Какой новый адрес рутор? Какое зеркало рутор? Не работает rutor.org и зеркала? Тогда наш торрент специально для вас. Rutor.in неофициальное зеркало rutor. В случае если у Вас заблокирован rutor или вдруг Вы не можете на него зайти, то Вы без труда сможете скачать бесплатно и без рекламы последние новинки кино, игр, сериалов и прочего у нас, на Rutor.in. Не нужно использовать прокси, чтобы зайти на рутор, достаточно воспользоваться нашим ресурсом. Все новые фильмы, игры, сериалы, книги и музыка за 2013 и 2014 годы через торрент бесплатно. Скачивайте фильмы в хорошем качестве, игры для пк, xbox, playstation без регистрации. У нас вы найдете новые Зарубежные сериалы и Русские сериалы 2013, 2014, 2015 годов. Оставайтесь с нами, качайте любимые фильмы, игры, сериалы, книги и музыку.
cron