img image001 image001 image001 image001 image001 image001 image001 image001 image001 image001 image001 image001 image001 image001 image001

Planets Sun Sun Sun
Статистика раздачи
Автор: Nickolas3434 | Размер: 7.96 ГБ | Добавлен: 11 ноя 2015
Раздают: 1086    Качают: 550
Скачать торрент
Скачать торрент
Описание торрента

СообщениеДобавлено: 11 ноя 2015 

Год выпуска: 2014
Страна: Россия
Студия: DixiMedia
Жанр: боевик
Продолжительность: 16 серий ~ по 44 мин.
Перевод: не требуется
Субтитры: нет
Оригинальная аудиодорожка: русский
Режиссер: Андрей Мармонтов
В ролях:
Мацей Штур, Анна Антонова, Владислав Павлов, Юлия Юрченко, Эдуард Флёров, Александр Сетейкин, Алексей Матошин, Вероника Вернадская, Александр Константинов, Юлия Галкина, Дмитрий Астапенко, Андрей Курилов, Виктория Фишер, Дарья Повереннова, Алексей Фаддеев, Виктор Проскурин, Дмитрий Астрахан, Юрий Сувейко, Марина Кондратьева (II), Елена Коренева, Андрей Ташков, Александр Пашков, Мухтар Гусенгаджиев, Владимир Качан, Максим Щёголев, Дмитрий Файнштейн, Михаил Хмуров, Юлия Шиферштейн, Иван Мамонов, Антон Афанасьев, Денис Ткачёв, Юрий Гумиров, Николай Перминов, Антон Батырев, Олег Новиков (IV), Александр Журман, Георгий Мартиросян, Алексей Захаров, Павел Басов, Екатерина Альбрандт...
Полный список актёров
Описание:
Без сна человеческий организм не может существовать бесконечно.
В одном из подпольных казино, больше похожем на тайный клуб, играют только самые богатые, самые влиятельные и… самые пресыщенные. Те, кто готов ставить целые состояния на красное, если это красное – кровь. Для них и был создан новый тотализатор, основанный на игре «Бессонница», который проводится всего раз в год. Клиенты казино, делая свои ставки, рискуют миллионами, но игроки рискуют гораздо большим.
Из 10 игроков последний не заснувший и оставшийся в живых – победитель. И нельзя сказать, что участие в игре – дело полностью добровольное.






Исходник: WEB-DL 1080i
Качество видео: WEB-DLRip
Формат видео: AVI
Видео: 720х400 (16:9), 25 fps, XviD ~ 1400 kbps avg, 0.194 bit/pixel
Аудио: 48 kHz, Dolby Digital AC3 2.0, 192 kbps
Раздача от:
Общее
Полное имя : D:TrackerСериалыБессонницаBessonnitsa.2013.WEB-DLRip_[New-team]_by_AVP_Studio\01.avi
Формат : AVI
Формат/Информация : Audio Video Interleave
Размер файла : 508 Мбайт
Продолжительность : 44 м.
Общий поток : 1601 Кбит/сек
Программа кодирования : VirtualDubMod 1.5.10.3 | www.virtualdub-fr.org || (build 2550/release)
Библиотека кодирования : VirtualDubMod build 2550/release
Видео
Идентификатор : 0
Формат : MPEG-4 Visual
Профиль формата : Advanced Simple@L5
Параметр BVOP формата : 1
Параметр QPel формата : Нет
Параметр GMC формата : Без точки перехода
Параметр матрицы формата : Выборочная
Идентификатор кодека : XVID
Идентификатор кодека/Подсказка : XviD
Продолжительность : 44 м.
Битрейт : 1400 Кбит/сек
Ширина : 720 пикселей
Высота : 400 пикселей
Соотношение сторон : 16:9
Частота кадров : 25,000 кадров/сек
Цветовое пространство : YUV
Субдискретизация насыщенности : 4:2:0
Битовая глубина : 8 бит
Тип развёртки : Прогрессивная
Метод сжатия : С потерями
Бит/(Пиксели*Кадры) : 0.194
Размер потока : 444 Мбайт (87%)
Библиотека кодирования : XviD 73
Аудио
Идентификатор : 1
Формат : AC-3
Формат/Информация : Audio Coding 3
Расширение режима : CM (complete main)
Параметр Endianness формата : Big
Идентификатор кодека : 2000
Продолжительность : 44 м.
Вид битрейта : Постоянный
Битрейт : 192 Кбит/сек
Каналы : 2 канала
Расположение каналов : Front: L R
Частота : 48,0 КГц
Метод сжатия : С потерями
Размер потока : 60,9 Мбайт (12%)
Выравнивание : Разделение по промежуткам
Продолжительность промежутка : 40 мс. (1,00 видеокадр)
Время предзагрузки промежутка : 500 мс





   Похожие торренты   Торрент   Размер 
В этой теме нет новых непрочитанных сообщений. Бессонница [01-16 из 16] (2014) WEB-DLRip-AVC от New-Team

282 | 86

12.99 ГБ

В этой теме нет новых непрочитанных сообщений. Бессонница [01-04 из 16] (2014) WEB-DLRip-AVC от ExKinoRay

64 | 273

2.88 ГБ

В этой теме нет новых непрочитанных сообщений. Бессонница [01-04 из 16] (2014) WEB-DLRip от HitWay

144 | 111

2.56 ГБ

В этой теме нет новых непрочитанных сообщений. Бессонница [01 из 16] (2014) WEB-DLRip от HitWay

40 | 19

677.37 МБ

В этой теме нет новых непрочитанных сообщений. Бессонница [01-02 из 16] (2014) WEB-DLRip от HitWay

60 | 22

1.32 ГБ

В этой теме нет новых непрочитанных сообщений. Бессонница [01-03 из 16] (2014) WEB-DLRip от Getty

123 | 124

1.61 ГБ

В этой теме нет новых непрочитанных сообщений. Бессонница [01-03 из 16] (2014) WEB-DLRip-AVC от ExKinoRay

12 | 15

2.29 ГБ




Вы не можете начинать темы
Вы не можете отвечать на сообщения
Вы не можете редактировать свои сообщения
Вы не можете удалять свои сообщения
Вы не можете добавлять вложения

Перейти:  
Для Мосгорсуда, Роскомнадзора и рекламодателей: mosgorsud-torrent[собачка]yandex.ru
 Вход
ppkBB3cker v.2 © 2008-2014 @ PPK
[ Time : 0.050s | 15 Queries | GZIP : Off ]

Торрент трекер RUTOR.IN, Не можете зайти на rutor.org? Какой новый адрес рутор? Какое зеркало рутор? Не работает rutor.org и зеркала? Тогда наш торрент специально для вас. Rutor.in неофициальное зеркало rutor. В случае если у Вас заблокирован rutor или вдруг Вы не можете на него зайти, то Вы без труда сможете скачать бесплатно и без рекламы последние новинки кино, игр, сериалов и прочего у нас, на Rutor.in. Не нужно использовать прокси, чтобы зайти на рутор, достаточно воспользоваться нашим ресурсом. Все новые фильмы, игры, сериалы, книги и музыка за 2013 и 2014 годы через торрент бесплатно. Скачивайте фильмы в хорошем качестве, игры для пк, xbox, playstation без регистрации. У нас вы найдете новые Зарубежные сериалы и Русские сериалы 2013, 2014, 2015 годов. Оставайтесь с нами, качайте любимые фильмы, игры, сериалы, книги и музыку.