img image001 image001 image001 image001 image001 image001 image001 image001 image001 image001 image001 image001 image001 image001 image001

Planets Sun Sun Sun
Статистика раздачи
Автор: Nickolas3434 | Размер: 3.22 ГБ | Добавлен: 11 ноя 2015
Раздают: 214    Качают: 30
Скачать торрент
Скачать торрент
Описание торрента

СообщениеДобавлено: 11 ноя 2015 


Информация о фильме
Название: Расследования Мердока
Оригинальное название: Murdoch Mysteries
Год выхода: 2014
Жанр: драма, криминал, детектив
Режиссер: Харви Кросслэнд, Лори Линд, Дон МакКатчен
В ролях: Янник Биссон, Хелен Джой, Томас Крэйг, Джонни Харрис, Лаклан Мёрдок, Джорджина Рейли, Кристиан Бруун, Арвен Хампрейс, Джонатан Уоттон, Найджел Беннетт
О фильме:
Конец 19-го века. На улицах Торонто происходят странные убийства. Детектив Уильям Мердок раскрывает их с помощью новой науки — криминалистики. У него есть союзник — судебный врач Джулия Огден. Ни юный возраст, ни хорошее воспитание, ни пышные юбки не мешают ей вскрывать трупы и проводить экспертизы.
Официальный сайт
Страна: Канада, Великобритания
Студия: Shaftesbury Films, Rogers Media, UKTV, ITV Studios Global Entertainment, Genesis International
Продолжительность: ~00:45:00 серия
Перевод: Любительский (двухголосый закадровый) - (DreamRecords)
Файл
Кодек: XviD / MP3
Качество: WEB-DLRip
Видео: MPEG4, XviD, 720x400 (16:9), 23.976 fps, 1 295 Kbps (0.188 bit/pixel)
Звук: MP3, 48.0 KHz, 2 ch, 192 Kbps, CBR
General
Complete name : Murdoch.Mysteries.S08E01.400p.WEB-DLRip.XviD - [DreamRecords].avi
Format : AVI
Format/Info : Audio Video Interleave
File size : 470 MiB
Duration : 43mn 56s
Overall bit rate : 1 496 Kbps
Writing application : VirtualDubModRus 1.5.10.2 (build 2542/release)
Writing library : VirtualDubMod build 2542/release
Video
ID : 0
Format : MPEG-4 Visual
Format profile : Advanced Simple@L5
Format settings, BVOP : 1
Format settings, QPel : No
Format settings, GMC : No warppoints
Format settings, Matrix : Default (MPEG)
Codec ID : XVID
Codec ID/Hint : XviD
Duration : 43mn 56s
Bit rate : 1 295 Kbps
Width : 720 pixels
Height : 400 pixels
Display aspect ratio : 16:9
Frame rate : 23.976 fps
Color space : YUV
Chroma subsampling : 4:2:0
Bit depth : 8 bits
Scan type : Progressive
Compression mode : Lossy
Bits/(Pixel*Frame) : 0.188
Stream size : 407 MiB (87%)
Writing library : XviD 64
Audio
ID : 1
Format : MPEG Audio
Format version : Version 1
Format profile : Layer 3
Codec ID : 55
Codec ID/Hint : MP3
Duration : 43mn 56s
Bit rate mode : Constant
Bit rate : 192 Kbps
Channel(s) : 2 channels
Sampling rate : 48.0 KHz
Compression mode : Lossy
Stream size : 60.3 MiB (13%)
Alignment : Aligned on interleaves
Interleave, duration : 42 ms (1.00 video frame)
Interleave, preload duration : 504 ms



   Похожие торренты   Торрент   Размер 
В этой теме нет новых непрочитанных сообщений. Расследования Мердока / Murdoch Mysteries [S05] (2012) HDTVRip | DreamRecords

11 | 3

6.39 ГБ

В этой теме нет новых непрочитанных сообщений. Расследования Мердока / Murdoch Mysteries [s05] (2012) BDRip | DreamRecords

29 | 17

7.49 ГБ

В этой теме нет новых непрочитанных сообщений. Расследования Мердока / Murdoch Mysteries [s06] (2013) BDRip-AVC | DreamRecords

29 | 35

8.78 ГБ

В этой теме нет новых непрочитанных сообщений. Расследования Мердока / Murdoch Mysteries [s05] (2012) BDRip-AVC | DreamRecords

30 | 17

9.51 ГБ

В этой теме нет новых непрочитанных сообщений. Расследования Мердока / Murdoch Mysteries [s06] (2013) BDRip | DreamRecords

30 | 25

6.92 ГБ

В этой теме нет новых непрочитанных сообщений. Расследования Мердока / Murdoch Mysteries [06х01-09 из 13] (2013) HDTVRip | DreamRecords

26 | 12

4.1 ГБ

В этой теме нет новых непрочитанных сообщений. Расследования Мердока / Murdoch Mysteries [s07х01-14 из 18] (2013) HDTVRip 720p | DreamRecords

17 | 21

16.29 ГБ




Вы не можете начинать темы
Вы не можете отвечать на сообщения
Вы не можете редактировать свои сообщения
Вы не можете удалять свои сообщения
Вы не можете добавлять вложения

Перейти:  
Для Мосгорсуда, Роскомнадзора и рекламодателей: mosgorsud-torrent[собачка]yandex.ru
 Вход
ppkBB3cker v.2 © 2008-2014 @ PPK
[ Time : 0.024s | 14 Queries | GZIP : On ]

Торрент трекер RUTOR.IN, Не можете зайти на rutor.org? Какой новый адрес рутор? Какое зеркало рутор? Не работает rutor.org и зеркала? Тогда наш торрент специально для вас. Rutor.in неофициальное зеркало rutor. В случае если у Вас заблокирован rutor или вдруг Вы не можете на него зайти, то Вы без труда сможете скачать бесплатно и без рекламы последние новинки кино, игр, сериалов и прочего у нас, на Rutor.in. Не нужно использовать прокси, чтобы зайти на рутор, достаточно воспользоваться нашим ресурсом. Все новые фильмы, игры, сериалы, книги и музыка за 2013 и 2014 годы через торрент бесплатно. Скачивайте фильмы в хорошем качестве, игры для пк, xbox, playstation без регистрации. У нас вы найдете новые Зарубежные сериалы и Русские сериалы 2013, 2014, 2015 годов. Оставайтесь с нами, качайте любимые фильмы, игры, сериалы, книги и музыку.