img image001 image001 image001 image001 image001 image001 image001 image001 image001 image001 image001 image001 image001 image001 image001

Planets Sun Sun Sun
Статистика раздачи
Автор: Nickolas3434 | Размер: 8.7 ГБ | Добавлен: 16 ноя 2015
Раздают: 1508    Качают: 615
Скачать торрент
Скачать торрент
Описание торрента

СообщениеДобавлено: 16 ноя 2015 


Информация о фильме
Оригинальное название: Чума (Девяностые)
Год выпуска: 2015
Жанр: Драма, криминал
Режиссер: Алексей Козлов, Александр Устюгов
В ролях: Сергей Жарков, Александр Устюгов, Юрий Беляев, Борис Щербаков, Екатерина Климова, Сергей Селин, Андрей Горбачёв, Светлана Смирнова-Марцинкевич, Наталья Ткаченко, Никита Рогов, Андрей Аксёнов, Даниил Кокин, Евгений Филимонов, Ксения Ирхина, Вера Шпак, Андрей Белоцерковский, Елизавета Ковалёва, Елена Мартыненко, Яков Шамшин, Юлия Вознесенская, Сергей Яценюк, Иван Батарев, Андрей Шимко, Михаил Соловьев, Всеволод Цурило, Юлия Галкина, Павел Григорьев, Михаил Морозов, Иван Немцов
О фильме:
«Чума» – фильм о нас и о «девяностых». Рушится эпоха, на смену ей приходит другая. Мужчины – любят деньги, женщины – любят тех, у кого они есть! Героям фильма нужно вписаться в обстоятельства новой жизни, но далеко не у всех это получается. Жизнь людей происходит на разных полюсах криминальной эпохи: взлет олигархов и обнищание народа. Эта жизнь раздаёт дивиденды не по заслугам и справедливости, а по законам волчьей стаи, где выживает сильнейший.
Выпущено: Россия, ООО «Студия «КонтАкт продакшн» по заказу АО «Телекомпания НТВ»
Продолжительность: 24 x ~ 00:45:00
Перевод: Не требуется
Файл
Качество: HDTVRip
Видео: XviD, ~ 1050 Кбит/с, 688x384
Аудио: MP3, 2 ch, 128 Кбит/с
Общее
Полное имя : Chuma.(24.serii.iz.24).2015.XviD.HDTVRip.by.GeneralFilm\02.seriya.avi
Формат : AVI
Формат/Информация : Audio Video Interleave
Размер файла : 371 Мбайт
Продолжительность : 43 м.
Общий поток : 1197 Кбит/сек
Программа кодирования : VirtualDubMod 1.5.10.3 | www.virtualdub-fr.org || (build 2550/release)
Библиотека кодирования : VirtualDubMod build 2550/release
Видео
Идентификатор : 0
Формат : MPEG-4 Visual
Профиль формата : Advanced Simple@L5
Параметр BVOP формата : 1
Параметр QPel формата : Нет
Параметр GMC формата : Без точки перехода
Параметр матрицы формата : Выборочная
Идентификатор кодека : XVID
Идентификатор кодека/Подсказка : XviD
Продолжительность : 43 м.
Битрейт : 1059 Кбит/сек
Ширина : 688 пикселей
Высота : 384 пикселя
Соотношение сторон : 16:9
Частота кадров : 25,000 кадров/сек
Цветовое пространство : YUV
Субдискретизация насыщенности : 4:2:0
Битовая глубина : 8 бит
Тип развёртки : Прогрессивная
Метод сжатия : С потерями
Бит/(Пиксели*Кадры) : 0.160
Размер потока : 328 Мбайт (88%)
Библиотека кодирования : XviD 73
Аудио
Идентификатор : 1
Формат : MPEG Audio
Версия формата : Version 1
Профиль формата : Layer 3
Идентификатор кодека : 55
Идентификатор кодека/Подсказка : MP3
Продолжительность : 43 м.
Вид битрейта : Постоянный
Битрейт : 128 Кбит/сек
Каналы : 2 канала
Частота : 48,0 КГц
Метод сжатия : С потерями
Размер потока : 39,7 Мбайт (11%)
Выравнивание : Соединение по промежуткам
Продолжительность промежутка : 40 мс. (1,00 видеокадр)
Время предзагрузки промежутка : 504 мс.
Библиотека кодирования : LAME3.99r
Настройки программы : -m s -V 4 -q 0 -lowpass 17 -b 128





Релиз от:
Исходник 1080р:



   Похожие торренты   Торрент   Размер 
В этой теме нет новых непрочитанных сообщений. Чума [01-16 из 24] (2015) HDTVRip | КПК

388 | 84

3.2 ГБ

В этой теме нет новых непрочитанных сообщений. Чума [01-14 из 24] (2015) HDTVRip | КПК

26 | 26

2.8 ГБ

В этой теме нет новых непрочитанных сообщений. Чума [01-12 из 24] (2015) HDTVRip | КПК

36 | 19

2.4 ГБ

В этой теме нет новых непрочитанных сообщений. Чума [01-08 из 24] (2015) HDTVRip | КПК

125 | 46

1.61 ГБ

В этой теме нет новых непрочитанных сообщений. Чума [01-06 из 24] (2015) HDTVRip | КПК

21 | 4

1.2 ГБ

В этой теме нет новых непрочитанных сообщений. Чума [01-12 из 24] (2015) HDTVRip-AVC от Files-x

178 | 148

8.18 ГБ

В этой теме нет новых непрочитанных сообщений. Чума [01-10 из 24] (2015) HDTVRip-AVC от Files-x

105 | 24

6.85 ГБ




Вы не можете начинать темы
Вы не можете отвечать на сообщения
Вы не можете редактировать свои сообщения
Вы не можете удалять свои сообщения
Вы не можете добавлять вложения

Перейти:  
Для Мосгорсуда, Роскомнадзора и рекламодателей: mosgorsud-torrent[собачка]yandex.ru
 Вход
ppkBB3cker v.2 © 2008-2014 @ PPK
[ Time : 0.074s | 15 Queries | GZIP : Off ]

Торрент трекер RUTOR.IN, Не можете зайти на rutor.org? Какой новый адрес рутор? Какое зеркало рутор? Не работает rutor.org и зеркала? Тогда наш торрент специально для вас. Rutor.in неофициальное зеркало rutor. В случае если у Вас заблокирован rutor или вдруг Вы не можете на него зайти, то Вы без труда сможете скачать бесплатно и без рекламы последние новинки кино, игр, сериалов и прочего у нас, на Rutor.in. Не нужно использовать прокси, чтобы зайти на рутор, достаточно воспользоваться нашим ресурсом. Все новые фильмы, игры, сериалы, книги и музыка за 2013 и 2014 годы через торрент бесплатно. Скачивайте фильмы в хорошем качестве, игры для пк, xbox, playstation без регистрации. У нас вы найдете новые Зарубежные сериалы и Русские сериалы 2013, 2014, 2015 годов. Оставайтесь с нами, качайте любимые фильмы, игры, сериалы, книги и музыку.
cron