img image001 image001 image001 image001 image001 image001 image001 image001 image001 image001 image001 image001 image001 image001 image001

Planets Sun Sun Sun
Статистика раздачи
Автор: Nickolas3434 | Размер: 350.58 МБ | Добавлен: 17 ноя 2015
Раздают: 64    Качают: 5
Скачать торрент
Скачать торрент
Описание торрента

СообщениеДобавлено: 17 ноя 2015 


Информация о фильме
Оригинальное название: Деффчонки
Год выпуска: 2015
Жанр: Ситком, комедия
Режиссер: Сергей Корягин, Ольга Френкель, Нигина Сайфуллаева
В ролях: Галина Боб, Анастасия Денисова, Полина Максимова, Таисия Вилкова, Родион Юрин, Наталья Унгард, Александр Серов, Алексей Воробьев, Тимур Боканча, Софья Урицкая, Александр Касаткин
О фильме: Героини «Деффчонок» - четыре подруги: мечтательная неудачница Маша, ее 16-летняя сестра Василиса, очкастый офисный планктон Катя и профессиональная блондинка Леля. Каждая хочет от жизни своего: успешной карьеры, правильного замужества, вселенской популярности...Способов стать счастливой миллион! Одна беда - в жизни все гораздо сложнее, чем в мечтах. Если ты попала на прослушивание к крутому продюсеру, это еще не значит, что тебя сделают звездой. Если заклеила депутата с Рублевки - далеко не факт, что он не слиняет от тебя в Лондон. Бурные ночи с поп-идолом еще не дают гарантии, что он захочет на тебе жениться. А когда ты влюбляешься в начальника, будь готова к тому, что он начнет играть твоими чувствами ради бизнеса.Сложность еще и в том, что подруги снимают одну на всех квартиру. Ведь все они приехали из Саратова, и родственников в столице у них нет. Жить вчетвером в одном шалаше - вот настоящая беда, в которой познаются друзья. Или это счастье, а не беда вовсе? Ответ на этот и еще 999 вопросов предстоит найти нашим героиням.

Страна: Россия
Студия: Киноконцерн "Косфильм"
Продолжительность: 00:23:00 / серия
Перевод: оригинал (русский)
Файл
Кодек: XviD
Качество: WEB-DLRip
Видео: ~ 1900 kb/s, 704х400
Звук: MP3, 128 kb/s (2 ch)
Субтитры: Нет
Внимание! Раздача ведётся путём добавления новых серий; при каждом добавлении создётся новый торрент. Чтобы начать докачку новой серии, пользователям необходимо сделать следующее:
1. Остановить скачивание.
2. Удалить старый торрент у себя из клиента (старые серии удалять не надо).
3. Скачать новый торрент и запустить его у себя в клиенте вместо старого, при этом указать клиенту путь в старую папку куда и должно происходить скачивание новых серий.
Ваш клиент при этом должен произвести хеширование (проверку) старой папки (если не производит сам - помогите ему сделать это), и будет докачивать только те серии которых у вас ещё нет. Старые серии при этом не удаляются, а продолжают раздаваться!
Eсли вы уже удалили старые серии, то предотвратить повторную закачку старых серий можно, отжав галочку в соответсвующих местах при запуске нового торрента. По возможности, желательно не удалять старые серии как можно дольше чтобы релизёр не столько продолжал раздавать старые серии, а смог сконцентрироваться на новых.
General
Complete name : Deffchonki.s05.e01.WEB-DLRip.avi
Format : AVI
Format/Info : Audio Video Interleave
File size : 351 MiB
Duration : 23mn 40s
Overall bit rate : 2 070 Kbps
Writing application : VirtualDubMod 1.5.10.3 | www.virtualdub-fr.org || (build 2550/release)
Writing library : VirtualDubMod build 2550/release
Video
ID : 0
Format : MPEG-4 Visual
Format profile : Advanced Simple@L5
Format settings, BVOP : 1
Format settings, QPel : No
Format settings, GMC : No warppoints
Format settings, Matrix : Custom
Codec ID : XVID
Codec ID/Hint : XviD
Duration : 23mn 40s
Bit rate : 1 932 Kbps
Width : 704 pixels
Height : 400 pixels
Display aspect ratio : 16:9
Frame rate : 25.000 fps
Color space : YUV
Chroma subsampling : 4:2:0
Bit depth : 8 bits
Scan type : Progressive
Compression mode : Lossy
Bits/(Pixel*Frame) : 0.274
Stream size : 327 MiB (93%)
Writing library : XviD 73
Audio
ID : 1
Format : MPEG Audio
Format version : Version 1
Format profile : Layer 3
Codec ID : 55
Codec ID/Hint : MP3
Duration : 23mn 40s
Bit rate mode : Constant
Bit rate : 128 Kbps
Channel(s) : 2 channels
Sampling rate : 48.0 KHz
Compression mode : Lossy
Stream size : 21.7 MiB (6%)
Alignment : Aligned on interleaves
Interleave, duration : 40 ms (1.00 video frame)
Interleave, preload duration : 504 ms
Writing library : LAME3.99r
Encoding settings : -m s -V 4 -q 2 -lowpass 17 -b 128


Автор рипа - ivandubskoj



   Похожие торренты   Торрент   Размер 
В этой теме нет новых непрочитанных сообщений. Деффчонки [05х01] (2015) WEB-DLRip от ivandubskoj

58 | 36

1011.43 МБ

В этой теме нет новых непрочитанных сообщений. Деффчонки [05х01-08] (2015) WEB-DLRip-AVC

63 | 87

2.91 ГБ

В этой теме нет новых непрочитанных сообщений. Деффчонки [05х01-06] (2015) WEB-DLRip-AVC

33 | 47

2.18 ГБ

В этой теме нет новых непрочитанных сообщений. Деффчонки [05х01-09] (2015) WEB-DLRip-AVC

25 | 47

3.24 ГБ

В этой теме нет новых непрочитанных сообщений. Деффчонки [05х01-02] (2015) WEB-DLRip AVC

42 | 15

746.5 МБ

В этой теме нет новых непрочитанных сообщений. Деффчонки [05х01-05] (2015) WEB-DLRip-AVC

33 | 21

1.82 ГБ

В этой теме нет новых непрочитанных сообщений. Деффчонки [05х01-010] (2015) WEB-DLRip-AVC

16 | 18

3.6 ГБ




Вы не можете начинать темы
Вы не можете отвечать на сообщения
Вы не можете редактировать свои сообщения
Вы не можете удалять свои сообщения
Вы не можете добавлять вложения

Перейти:  
Для Мосгорсуда, Роскомнадзора и рекламодателей: mosgorsud-torrent[собачка]yandex.ru
 Вход
ppkBB3cker v.2 © 2008-2014 @ PPK
[ Time : 0.106s | 14 Queries | GZIP : Off ]

Торрент трекер RUTOR.IN, Не можете зайти на rutor.org? Какой новый адрес рутор? Какое зеркало рутор? Не работает rutor.org и зеркала? Тогда наш торрент специально для вас. Rutor.in неофициальное зеркало rutor. В случае если у Вас заблокирован rutor или вдруг Вы не можете на него зайти, то Вы без труда сможете скачать бесплатно и без рекламы последние новинки кино, игр, сериалов и прочего у нас, на Rutor.in. Не нужно использовать прокси, чтобы зайти на рутор, достаточно воспользоваться нашим ресурсом. Все новые фильмы, игры, сериалы, книги и музыка за 2013 и 2014 годы через торрент бесплатно. Скачивайте фильмы в хорошем качестве, игры для пк, xbox, playstation без регистрации. У нас вы найдете новые Зарубежные сериалы и Русские сериалы 2013, 2014, 2015 годов. Оставайтесь с нами, качайте любимые фильмы, игры, сериалы, книги и музыку.