img image001 image001 image001 image001 image001 image001 image001 image001 image001 image001 image001 image001 image001 image001 image001

Planets Sun Sun Sun
Статистика раздачи
Автор: Nickolas3434 | Размер: 3.28 ГБ | Добавлен: 18 ноя 2015
Раздают: 9    Качают: 2
Скачать торрент
Скачать торрент
Описание торрента

СообщениеДобавлено: 18 ноя 2015 

Год выпуска: 1975
Страна: СССР
Студия: Одесская киностудия
Жанр: фантастика, боевик, приключения
Продолжительность: 3 серии ~ по 1 ч. 10 мин.
Перевод: не требуется
Субтитры: нет
Оригинальная аудиодорожка: русский
Режиссер: Василий Левин
В ролях:
Владислав Дворжецкий, Юрий Родионов, Михаил Кононов, Владимир Талашко, Марианна Вертинская, Владимир Басов, Виктор Демерташ, Геннадий Нилов, Александр Пороховщиков, Гиви Тохадзе, Земфира Цахилова, Николай Дупак, Юрий Меншагин...
Полный список актёров
Описание:
Телесериал снят по мотивам романов Жюля Верна "20000 лье под водой" и "Паровой дом".
Морское чудовище уничтожает военные корабли, и знаменитый профессор Аронакс отправляется в карательную экспедицию. После неудачного сражения с чудовищем корабль идет ко дну, а профессор, его слуга Консель и китобой Нед Лэнд попадают на подводный корабль и совершают удивительное путешествие под водой.
Первая серия называется "Железный кит", вторая - "Принц Даккар", третья - "Наутилус" продолжает борьбу".






Исходник: DVD5 R5 + DVD9 R5
Качество видео: DVDRip
Формат видео: AVI
Видео: 720х544 (4:3), 25 fps, XviD ~ 1895 kbps avg, 0.194 bit/pixel
Аудио: 48 kHz, Dolby Digital AC3 5.1, 384 kbps
Раздача от:
1-я серия: «Железный кит»
2-я серия: «Принц Даккар»
3-я серия: «Наутилус продолжает борьбу»

Общее
Полное имя : Kapitan.Nemo.1975.DVDRip_[New-team]_by_AVP_Studio\01.avi
Формат : AVI
Формат/Информация : Audio Video Interleave
Размер файла : 1,17 Гбайт
Продолжительность : 1 ч. 12 м.
Общий поток : 2289 Кбит/сек
Программа кодирования : VirtualDubMod 1.5.10.3 | www.virtualdub-fr.org || (build 2550/release)
Библиотека кодирования : VirtualDubMod build 2550/release
Видео
Идентификатор : 0
Формат : MPEG-4 Visual
Профиль формата : Advanced Simple@L5
Параметр BVOP формата : 1
Параметр QPel формата : Нет
Параметр GMC формата : Без точки перехода
Параметр матрицы формата : Выборочная
Идентификатор кодека : XVID
Идентификатор кодека/Подсказка : XviD
Продолжительность : 1 ч. 12 м.
Битрейт : 1895 Кбит/сек
Ширина : 720 пикселей
Высота : 544 пикселя
Соотношение сторон : 4:3
Частота кадров : 25,000 кадров/сек
Цветовое пространство : YUV
Субдискретизация насыщенности : 4:2:0
Битовая глубина : 8 бит
Тип развёртки : Прогрессивная
Метод сжатия : С потерями
Бит/(Пиксели*Кадры) : 0.194
Размер потока : 989 Мбайт (83%)
Библиотека кодирования : XviD 73
Аудио
Идентификатор : 1
Формат : AC-3
Формат/Информация : Audio Coding 3
Расширение режима : CM (complete main)
Параметр Endianness формата : Big
Идентификатор кодека : 2000
Продолжительность : 1 ч. 12 м.
Вид битрейта : Постоянный
Битрейт : 384 Кбит/сек
Каналы : 6 каналов
Расположение каналов : Front: L C R, Side: L R, LFE
Частота : 48,0 КГц
Метод сжатия : С потерями
Размер потока : 200 Мбайт (17%)
Выравнивание : Разделение по промежуткам
Продолжительность промежутка : 40 мс. (1,00 видеокадр)
Время предзагрузки промежутка : 500 мс





   Похожие торренты   Торрент   Размер 
В этой теме нет новых непрочитанных сообщений. Капитан Немо [01-03 из 03] (1977) DVDRip от New-Team

8 | 3

2.18 ГБ

В этой теме нет новых непрочитанных сообщений. Капитан Немо [01-03 из 03] (1977) DVDRip-AVC от New-Team

42 | 7

2.91 ГБ

В этой теме нет новых непрочитанных сообщений. Капитан Немо (1975) DVDRip

201 | 24

3.54 ГБ

В этой теме нет новых непрочитанных сообщений. Капитан Немо [01-03 из 03] (1975) DVDRip-AVC

178 | 31

4.18 ГБ

В этой теме нет новых непрочитанных сообщений. Капитан Немо [01-03 из 03] (1975) DVDRip-AVC от Тorrent-Хzona

46 | 7

2.67 ГБ

В этой теме нет новых непрочитанных сообщений. Капитан Немо и подводный город / Captain Nemo and the Underwater City (1969) DVDRip

8 | 3

1.46 ГБ

В этой теме нет новых непрочитанных сообщений. 20 000 лье под водой: Капитан Немо (2010) PC

4 | 10

59.4 МБ




Вы не можете начинать темы
Вы не можете отвечать на сообщения
Вы не можете редактировать свои сообщения
Вы не можете удалять свои сообщения
Вы не можете добавлять вложения

Перейти:  
Для Мосгорсуда, Роскомнадзора и рекламодателей: mosgorsud-torrent[собачка]yandex.ru
 Вход
ppkBB3cker v.2 © 2008-2014 @ PPK
[ Time : 0.053s | 19 Queries | GZIP : Off ]

cron