img image001 image001 image001 image001 image001 image001 image001 image001 image001 image001 image001 image001 image001 image001 image001

Planets Sun Sun Sun
Статистика раздачи
Автор: Nickolas3434 | Размер: 2.91 ГБ | Добавлен: 19 ноя 2015
Раздают: 51    Качают: 9
Скачать торрент
Скачать торрент
Описание торрента

СообщениеДобавлено: 19 ноя 2015 

Год выпуска: 1975
Страна: СССР
Студия: Одесская киностудия
Жанр: фантастика, боевик, приключения
Продолжительность: 3 серии ~ по 1 ч. 10 мин.
Перевод: не требуется
Субтитры: нет
Оригинальная аудиодорожка: русский
Режиссер: Василий Левин
В ролях:
Владислав Дворжецкий, Юрий Родионов, Михаил Кононов, Владимир Талашко, Марианна Вертинская, Владимир Басов, Виктор Демерташ, Геннадий Нилов, Александр Пороховщиков, Гиви Тохадзе, Земфира Цахилова, Николай Дупак, Юрий Меншагин...
Полный список актёров
Описание:
Телесериал снят по мотивам романов Жюля Верна "20000 лье под водой" и "Паровой дом".
Морское чудовище уничтожает военные корабли, и знаменитый профессор Аронакс отправляется в карательную экспедицию. После неудачного сражения с чудовищем корабль идет ко дну, а профессор, его слуга Консель и китобой Нед Лэнд попадают на подводный корабль и совершают удивительное путешествие под водой.
Первая серия называется "Железный кит", вторая - "Принц Даккар", третья - "Наутилус" продолжает борьбу".







Исходник: DVD5 R5 + DVD9 R5
Качество видео: DVDRip-AVC
Формат видео: MKV
Видео: 720->762х572 (4:3), 25 fps, H264 ~ 1646 kbps avg, 0.160 bit/pixel
Аудио: 48 kHz, Dolby Digital AC3 5.1, 384 kbps
Раздача от:
1-я серия: «Железный кит»
2-я серия: «Принц Даккар»
3-я серия: «Наутилус продолжает борьбу»

Общее
Полное имя : Kapitan.Nemo.1975.DVDRip-AVC_[New-team]_by_AVP_Studio\03.mkv
Формат : Matroska
Версия формата : Version 2
Размер файла : 940 Мбайт
Продолжительность : 1 ч. 4 м.
Общий поток : 2032 Кбит/сек
Дата кодирования : UTC 2015-11-18 02:59:45
Программа кодирования : mkvmerge v6.1.0 ('Old Devil') built on Mar 4 2013 09:10:42
Библиотека кодирования : libebml v1.3.0 + libmatroska v1.4.0
Видео
Идентификатор : 1
Формат : AVC
Формат/Информация : Advanced Video Codec
Профиль формата : High@L4.1
Параметр CABAC формата : Да
Параметр ReFrames формата : 10 кадров
Идентификатор кодека : V_MPEG4/ISO/AVC
Продолжительность : 1 ч. 4 м.
Битрейт : 1646 Кбит/сек
Ширина : 720 пикселей
Высота : 572 пикселя
Соотношение сторон : 4:3
Режим частоты кадров : Постоянный
Частота кадров : 25,000 кадров/сек
Цветовое пространство : YUV
Субдискретизация насыщенности : 4:2:0
Битовая глубина : 8 бит
Тип развёртки : Прогрессивная
Бит/(Пиксели*Кадры) : 0.160
Размер потока : 744 Мбайт (79%)
Библиотека кодирования : x264 core 148 r2597 e86f3a1
Настройки программы : cabac=1 / ref=10 / deblock=1:-2:-1 / analyse=0x3:0x113 / me=umh / subme=10 / psy=1 / psy_rd=1.00:0.00 / mixed_ref=1 / me_range=32 / chroma_me=1 / trellis=2 / 8x8dct=1 / cqm=0 / deadzone=21,11 / fast_pskip=1 / chroma_qp_offset=-2 / threads=6 / lookahead_threads=1 / sliced_threads=0 / nr=0 / decimate=0 / interlaced=0 / bluray_compat=0 / constrained_intra=0 / bframes=8 / b_pyramid=2 / b_adapt=2 / b_bias=0 / direct=3 / weightb=1 / open_gop=0 / weightp=2 / keyint=250 / keyint_min=25 / scenecut=40 / intra_refresh=0 / rc=2pass / mbtree=0 / bitrate=1646 / ratetol=1.0 / qcomp=0.60 / qpmin=0 / qpmax=69 / qpstep=4 / cplxblur=20.0 / qblur=0.5 / ip_ratio=1.40 / pb_ratio=1.30 / aq=1:1.00
Default : Да
Forced : Нет
Аудио
Идентификатор : 2
Формат : AC-3
Формат/Информация : Audio Coding 3
Расширение режима : CM (complete main)
Параметр Endianness формата : Big
Идентификатор кодека : A_AC3
Продолжительность : 1 ч. 4 м.
Вид битрейта : Постоянный
Битрейт : 384 Кбит/сек
Каналы : 6 каналов
Расположение каналов : Front: L C R, Side: L R, LFE
Частота : 48,0 КГц
Метод сжатия : С потерями
Размер потока : 178 Мбайт (19%)
Default : Да
Forced : Нет





   Похожие торренты   Торрент   Размер 
В этой теме нет новых непрочитанных сообщений. Капитан Немо [01-03 из 03] (1977) DVDRip от New-Team

29 | 4

3.28 ГБ

В этой теме нет новых непрочитанных сообщений. Капитан Немо [01-03 из 03] (1977) DVDRip от New-Team

17 | 7

2.18 ГБ

В этой теме нет новых непрочитанных сообщений. Капитан Немо [01-03 из 03] (1975) DVDRip-AVC

222 | 32

4.18 ГБ

В этой теме нет новых непрочитанных сообщений. Капитан Немо (1975) DVDRip

201 | 24

3.54 ГБ

В этой теме нет новых непрочитанных сообщений. Капитан Немо [01-03 из 03] (1975) DVDRip-AVC от Тorrent-Хzona

46 | 7

2.67 ГБ

В этой теме нет новых непрочитанных сообщений. Капитан Немо и подводный город / Captain Nemo and the Underwater City (1969) DVDRip

8 | 3

1.46 ГБ

В этой теме нет новых непрочитанных сообщений. 20 000 лье под водой: Капитан Немо (2010) PC

4 | 10

59.4 МБ




Вы не можете начинать темы
Вы не можете отвечать на сообщения
Вы не можете редактировать свои сообщения
Вы не можете удалять свои сообщения
Вы не можете добавлять вложения

Перейти:  
Для Мосгорсуда, Роскомнадзора и рекламодателей: mosgorsud-torrent[собачка]yandex.ru
 Вход
ppkBB3cker v.2 © 2008-2014 @ PPK
[ Time : 0.044s | 17 Queries | GZIP : Off ]

Торрент трекер RUTOR.IN, Не можете зайти на rutor.org? Какой новый адрес рутор? Какое зеркало рутор? Не работает rutor.org и зеркала? Тогда наш торрент специально для вас. Rutor.in неофициальное зеркало rutor. В случае если у Вас заблокирован rutor или вдруг Вы не можете на него зайти, то Вы без труда сможете скачать бесплатно и без рекламы последние новинки кино, игр, сериалов и прочего у нас, на Rutor.in. Не нужно использовать прокси, чтобы зайти на рутор, достаточно воспользоваться нашим ресурсом. Все новые фильмы, игры, сериалы, книги и музыка за 2013 и 2014 годы через торрент бесплатно. Скачивайте фильмы в хорошем качестве, игры для пк, xbox, playstation без регистрации. У нас вы найдете новые Зарубежные сериалы и Русские сериалы 2013, 2014, 2015 годов. Оставайтесь с нами, качайте любимые фильмы, игры, сериалы, книги и музыку.
cron