img image001 image001 image001 image001 image001 image001 image001 image001 image001 image001 image001 image001 image001 image001 image001

Planets Sun Sun Sun
Статистика раздачи
Автор: Nickolas3434 | Размер: 55.88 ГБ | Добавлен: 19 ноя 2015
Раздают: 205    Качают: 92
Скачать торрент
Скачать торрент
Описание торрента

СообщениеДобавлено: 19 ноя 2015 

Информация о сериале
Название: Готэм
Оригинальное название: Gotham
Годы выхода: 2014-2015
Жанр: триллер, драма, криминал
Автор идеи: Бруно Хеллер /Bruno Heller/
Режиссеры: Т.Дж. Скотт /T.J. Scott/, Дэнни Кэннон /Danny Cannon/, Эгил Эгилссон /Eagle Egilsson/ и др.
В ролях: Бен МакКензи /Ben McKenzie/, Донал Лог /Donal Logue/, Робин Лорд Тейлор /Robin Lord Taylor/, Дэвид Мазоуз /David Mazouz/, Эрин Ричардс /Erin Richards/, Забрина Гевара /Zabryna Guevara/, Шон Пертуи /Sean Pertwee/, Камрен Бикондова /Camren Bicondova/, Кори Майкл Смит /Cory Michael Smith/, Джада Пинкетт Смит /Jada Pinkett Smith/ и др.
О сериале:
Детектив Джеймс Гордон и его напарник Харви Баллок приступили к работе в департаменте полиции Готэма. Они расследуют убийства. Последнее дело очень сложное, поэтому к мужчинам примыкает Сара Эссен, которая поможет вести дело по Томасу и Марте Уэйн. Гордон за время расследования успевает познакомиться с сыном убитых Брюсом Уэйном, который после гибели родителей находится под опекой дворецкого Альфреда, который работает при семье Уэйн. Но не только смерть Томаса и Марты является главным делом Гордона. Ему приходится решать проблемы с местным главарем банды — женщиной по имени Фиш Муни, а также с очень опасными злодеями, населяющими Готэм. Среди проходимцев затесались Освальд Кобблпот и Селина Кайл. В итоге, Гордон фокусируется на дружбе с молодым Брюсом, чтобы в будущем сделать из маленького мальчика Тёмного рыцаря — защитника Готэма.

Страны: США
Студии: Warner Bros. Television / DC Comics / Primrose Hill Productions
Продолжительность: 22 x ~ 00:43:00
Перевод:
Профессиональный (многоголосый, закадровый) - LostFilm
Профессиональный (многоголосый, закадровый) - NewStudio
Релиз от: by marchelush
Рип от CtrlHD!
Файл
Кодек: H.264
Качество: BDRip 720p
Видео: 1280x720 at 23.976 fps, x264@L4.1, 2pass, ~6500 kbps avg
Аудио#1: Russian: 48 kHz, AC3, 3/2 (L,C,R,l,r) + LFE ch, ~640.00 kbps avg |Многоголосый закадровый, LostFilm|
Аудио#2: Russian: 48 kHz, AC3, 3/2 (L,C,R,l,r) + LFE ch, ~448.00 kbps avg |Многоголосый закадровый, NewStudio|
Аудио#3: English: 48 kHz, AC3, 3/2 (L,C,R,l,r) + LFE ch, ~640.00 kbps avg |Оригинал|
Субтитры: English (Full, SDH)

General
Complete name : Gotham.S01E01.720p.BDRip.2xRus.Eng.Subs-HDCLUB.mkv
Format : Matroska
Format version : Version 4 / Version 2
File size : 2.88 GiB
Duration : 50mn 4s
Overall bit rate : 8 226 Kbps
Movie name : Gotham (2014) - Release for HDCLUB
Encoded date : UTC 2015-11-14 14:57:04
Writing application : mkvmerge v6.2.0 ('Promised Land') built on Apr 28 2013 12:22:01
Writing library : libebml v1.3.0 + libmatroska v1.4.0
Video
ID : 1
Format : AVC
Format/Info : Advanced Video Codec
Format profile : High@L4.1
Format settings, CABAC : Yes
Format settings, ReFrames : 9 frames
Codec ID : V_MPEG4/ISO/AVC
Duration : 50mn 4s
Bit rate : 6 500 Kbps
Width : 1 280 pixels
Height : 720 pixels
Display aspect ratio : 16:9
Frame rate mode : Constant
Frame rate : 23.976 fps
Color space : YUV
Chroma subsampling : 4:2:0
Bit depth : 8 bits
Scan type : Progressive
Bits/(Pixel*Frame) : 0.294
Stream size : 2.22 GiB (77%)
Writing library : x264 core 146 r2538 121396c
Encoding settings : cabac=1 / ref=9 / deblock=1:-3:-3 / analyse=0x3:0x133 / me=umh / subme=10 / psy=1 / psy_rd=1.05:0.00 / mixed_ref=1 / me_range=28 / chroma_me=1 / trellis=2 / 8x8dct=1 / cqm=0 / deadzone=21,11 / fast_pskip=0 / chroma_qp_offset=-2 / threads=12 / lookahead_threads=1 / sliced_threads=0 / nr=0 / decimate=0 / interlaced=0 / bluray_compat=0 / constrained_intra=0 / bframes=3 / b_pyramid=2 / b_adapt=2 / b_bias=0 / direct=3 / weightb=1 / open_gop=0 / weightp=2 / keyint=240 / keyint_min=23 / scenecut=40 / intra_refresh=0 / rc_lookahead=60 / rc=2pass / mbtree=0 / bitrate=6500 / ratetol=1.0 / qcomp=0.70 / qpmin=0 / qpmax=51 / qpstep=4 / cplxblur=20.0 / qblur=0.5 / vbv_maxrate=62500 / vbv_bufsize=78125 / nal_hrd=none / filler=0 / ip_ratio=1.40 / pb_ratio=1.30 / aq=1:0.80
Default : Yes
Forced : No
Audio #1
ID : 2
Format : AC-3
Format/Info : Audio Coding 3
Mode extension : CM (complete main)
Format settings, Endianness : Big
Codec ID : A_AC3
Duration : 50mn 4s
Bit rate mode : Constant
Bit rate : 640 Kbps
Channel(s) : 6 channels
Channel positions : Front: L C R, Side: L R, LFE
Sampling rate : 48.0 KHz
Compression mode : Lossy
Stream size : 229 MiB (8%)
Title : LostFilm
Language : Russian
Default : Yes
Forced : No
Audio #2
ID : 3
Format : AC-3
Format/Info : Audio Coding 3
Mode extension : CM (complete main)
Format settings, Endianness : Big
Codec ID : A_AC3
Duration : 50mn 4s
Bit rate mode : Constant
Bit rate : 448 Kbps
Channel(s) : 6 channels
Channel positions : Front: L C R, Side: L R, LFE
Sampling rate : 48.0 KHz
Compression mode : Lossy
Stream size : 160 MiB (5%)
Title : NewStudio
Language : Russian
Default : No
Forced : No
Audio #3
ID : 4
Format : AC-3
Format/Info : Audio Coding 3
Mode extension : CM (complete main)
Format settings, Endianness : Big
Codec ID : A_AC3
Duration : 50mn 4s
Bit rate mode : Constant
Bit rate : 640 Kbps
Channel(s) : 6 channels
Channel positions : Front: L C R, Side: L R, LFE
Sampling rate : 48.0 KHz
Compression mode : Lossy
Stream size : 229 MiB (8%)
Language : English
Default : No
Forced : No
Text #1
ID : 5
Format : UTF-8
Codec ID : S_TEXT/UTF8
Codec ID/Info : UTF-8 Plain Text
Language : English
Default : No
Forced : No
Text #2
ID : 6
Format : UTF-8
Codec ID : S_TEXT/UTF8
Codec ID/Info : UTF-8 Plain Text
Title : FULL
Language : English
Default : No
Forced : No
01. Пилотная серия / Pilot
02. Selina Kyle / Селина Кайл
03. The Balloonman / Человек-Воздушный шар
04. Arkham / Аркхем
05. Viper / Гадюка
06. Spirit of the Goat / Дух Козла
07. Penguin's Umbrella / Зонт Пингвина
08. The Mask / Маска
09. Harvey Dent / Харви Дент
10. Lovecraft / Лавкрафт
11. Rogues' Gallery / Галерея преступников
12. What the Little Bird Told Him / Что напела маленькая птичка
13. Welcome Back, Jim Gordon / С возвращением, Джим Гордон
14. The Fearsome Dr. Crane / Страшный доктор Крейн
15. The Scarecrow / Пугало
16. The Blind Fortune Teller / Слепой провидец
17. Red Hood / Красный колпак
18. Everyone Has a Cobblepot / Кобблпот для каждого
19. Beasts of Prey / Хищные звери
20. Under the Knife / Под ножом
21. The Anvil or the Hammer / Между молотом и наковальней
22. Все счастливые семьи похожи друг на друга / All Happy Families Are Alike
ЦитатаКто-то писал:
Звуковые дорожки 1 и 2 были получены путем наложения выделенных голосов на центр DTS-HD MA.
1-ая серия расширенная.
Работа со звуком: kmarats. Отдельное спасибо vlaluk за помощь в монтаже 1 серии.
[*] Сборка осуществлена в рамках нового сервиса от HDCLUB "Мастерская". Спонсоры: Plazik, chertopolokh.



   Похожие торренты   Торрент   Размер 
В этой теме нет новых непрочитанных сообщений. Готэм / Gotham [01x01-18 из 22] (2014-2015) WEB-DL 720p | LostFilm, NewStudio, BaibaKo

8 | 61

31.12 ГБ

В этой теме нет новых непрочитанных сообщений. Готэм / Gotham [02х01-03 из 22] (2015) WEB-DL 720p | NewStudio, LostFilm

71 | 75

4.77 ГБ

В этой теме нет новых непрочитанных сообщений. Готэм / Gotham [02х01 из 22] (2015) WEB-DL 720p | NewStudio, LostFilm, BaibaKo

17 | 2

1.71 ГБ

В этой теме нет новых непрочитанных сообщений. Готэм / Gotham [01x01 из 16] (2014) WEB-DL 720p | LostFilm, NewStudio, BaibaKo

221 | 30

1.94 ГБ

В этой теме нет новых непрочитанных сообщений. Готэм / Gotham [01x01-02 из 16] (2014) WEB-DL 720p | LostFilm, NewStudio, BaibaKo

95 | 67

3.68 ГБ

В этой теме нет новых непрочитанных сообщений. Готэм / Gotham [s01] (2014-2015) BDRemux 1080p | LostFilm, NewStudio

39 | 17

144.77 ГБ

В этой теме нет новых непрочитанных сообщений. Готэм / Gotham [01x01-18 из 22] (2014-2015) WEB-DL 1080p | LostFilm, NewStudio, BaibaKo

17 | 73

36.98 ГБ




Вы не можете начинать темы
Вы не можете отвечать на сообщения
Вы не можете редактировать свои сообщения
Вы не можете удалять свои сообщения
Вы не можете добавлять вложения

Перейти:  
Для Мосгорсуда, Роскомнадзора и рекламодателей: mosgorsud-torrent[собачка]yandex.ru
 Вход
ppkBB3cker v.2 © 2008-2014 @ PPK
[ Time : 0.091s | 16 Queries | GZIP : Off ]

Торрент трекер RUTOR.IN, Не можете зайти на rutor.org? Какой новый адрес рутор? Какое зеркало рутор? Не работает rutor.org и зеркала? Тогда наш торрент специально для вас. Rutor.in неофициальное зеркало rutor. В случае если у Вас заблокирован rutor или вдруг Вы не можете на него зайти, то Вы без труда сможете скачать бесплатно и без рекламы последние новинки кино, игр, сериалов и прочего у нас, на Rutor.in. Не нужно использовать прокси, чтобы зайти на рутор, достаточно воспользоваться нашим ресурсом. Все новые фильмы, игры, сериалы, книги и музыка за 2013 и 2014 годы через торрент бесплатно. Скачивайте фильмы в хорошем качестве, игры для пк, xbox, playstation без регистрации. У нас вы найдете новые Зарубежные сериалы и Русские сериалы 2013, 2014, 2015 годов. Оставайтесь с нами, качайте любимые фильмы, игры, сериалы, книги и музыку.