img image001 image001 image001 image001 image001 image001 image001 image001 image001 image001 image001 image001 image001 image001 image001

Planets Sun Sun Sun
Статистика раздачи
Автор: Nickolas3434 | Размер: 48.49 ГБ | Добавлен: 19 ноя 2015
Раздают: 134    Качают: 23
Скачать торрент
Скачать торрент
Описание торрента

СообщениеДобавлено: 19 ноя 2015 

Информация о сериале
Название: Тайны Смолвиля
Оригинальное название: Smallville
Годы выхода: 2009-2010
Жанр: драма, фантастика
Авторы идеи: Альфред Гоф /Alfred Gough/, Майлз Миллар /Miles Millar/
Режиссеры: Джеймс Маршалл /James Marshall/, Грег Биман /Greg Beeman/, Майк Рол /Mike Rohl/ и др.
В ролях: Том Уэллинг /Tom Welling/, Эллисон Мэк /Allison Mack/, Эрика Дюранс /Erica Durance/, Кэссиди Фриман /Cassidy Freeman/, Каллум Блу /Callum Blue/, Джастин Хартли /Justin Hartley/ и др.
О сериале:
1989 год, метеоритный дождь в городе Смолвиль наносит невиданные разрушения, а в бездетной семье жителей Смолвиля странным образом появляется маленький ребёнок — Кларк Кент.
Прошло много лет. Кларк уже учится в школе. Его ошеломляющие способности заставляют его чаще задуматься о том, кто он собственно такой. К тому же он влюблен в одноклассницу — Лану Лэнг, чьи родители пропали во время метеоритного дождя. Этот фактор значительно осложняет их отношения. Внимательные родители Кларка пытаются любым путём сберечь его секрет, даже возбраняют ему выступать в школьной футбольной команде.
Однажды Кларк спас жизнь молодого бизнесмена Лекса Лютера, когда машина бизнесмена, потеряв управление, падает с моста в реку. С этого обстоятельства и завязывается череда многообразных похождений супермена — Кларка Кента.

Страны: США, Канада
Студии: Tollin/Robbins Productions / Millar Gough Ink / Warner Bros. Television и др.
Продолжительность: 21 x ~ 00:43:00
Перевод: Профессиональный (многоголосый, закадровый) - Ю
Файл
Кодек: H.264
Качество: BDRip 720p
Видео: 1280x720 at 23.976 fps, x264@L3.1, 2pass, ~6600 kbps avg
Аудио#1: Russian: 48 kHz, AC3, 2/0 (L,R) ch, ~192.00 kbps avg |Многоголосый закадровый, Ю|
Аудио#2: English: 48 kHz, AC3, 3/2 (L,C,R,l,r) + LFE ch, ~640.00 kbps avg |Оригинал|
Субтитры: Russian (Full - Swan), English (SDH)

General
Complete name : smallville.s09e01.Savior.720p.bluray.rus.mvo.eng.sub.mkv
Format : Matroska
Format version : Version 4 / Version 2
File size : 2.20 GiB
Duration : 42mn 14s
Overall bit rate : 7 470 Kbps
Movie name : Smallville Season 09 Episode 01 Savior - Спаситель [Russian - U + English + Sub]
Encoded date : UTC 2013-10-02 16:21:50
Writing application : mkvmerge v6.2.0 ('Promised Land') built on Apr 28 2013 12:22:01
Writing library : libebml v1.3.0 + libmatroska v1.4.0
Video
ID : 1
Format : AVC
Format/Info : Advanced Video Codec
Format profile : High@L3.1
Format settings, CABAC : Yes
Format settings, ReFrames : 5 frames
Codec ID : V_MPEG4/ISO/AVC
Duration : 42mn 14s
Bit rate : 6 639 Kbps
Width : 1 280 pixels
Height : 720 pixels
Display aspect ratio : 16:9
Frame rate mode : Constant
Frame rate : 23.976 fps
Color space : YUV
Chroma subsampling : 4:2:0
Bit depth : 8 bits
Scan type : Progressive
Bits/(Pixel*Frame) : 0.300
Stream size : 1.91 GiB (87%)
Title : Smallville S09E01 Savior
Writing library : x264 core 104 r1713 c276662
Encoding settings : cabac=1 / ref=5 / deblock=1:-3:-3 / analyse=0x3:0x133 / me=umh / subme=9 / psy=1 / psy_rd=1.00:0.00 / mixed_ref=1 / me_range=24 / chroma_me=1 / trellis=2 / 8x8dct=1 / cqm=0 / deadzone=21,11 / fast_pskip=0 / chroma_qp_offset=-2 / threads=6 / sliced_threads=0 / nr=0 / decimate=0 / interlaced=0 / constrained_intra=0 / bframes=6 / b_pyramid=2 / b_adapt=2 / b_bias=0 / direct=3 / weightb=1 / open_gop=0 / weightp=2 / keyint=250 / keyint_min=23 / scenecut=40 / intra_refresh=0 / rc=2pass / mbtree=0 / bitrate=6639 / ratetol=1.0 / qcomp=0.60 / qpmin=10 / qpmax=51 / qpstep=4 / cplxblur=20.0 / qblur=0.5 / ip_ratio=1.40 / pb_ratio=1.30 / aq=1:1.00
Language : English
Default : Yes
Forced : No
Audio #1
ID : 2
Format : AC-3
Format/Info : Audio Coding 3
Mode extension : CM (complete main)
Format settings, Endianness : Big
Codec ID : A_AC3
Duration : 42mn 14s
Bit rate mode : Constant
Bit rate : 192 Kbps
Channel(s) : 2 channels
Channel positions : Front: L R
Sampling rate : 48.0 KHz
Compression mode : Lossy
Stream size : 58.0 MiB (3%)
Title : MVO U @ AC3 2.0 192 kbps
Language : Russian
Default : Yes
Forced : No
Audio #2
ID : 3
Format : AC-3
Format/Info : Audio Coding 3
Mode extension : CM (complete main)
Format settings, Endianness : Big
Codec ID : A_AC3
Duration : 42mn 14s
Bit rate mode : Constant
Bit rate : 640 Kbps
Channel(s) : 6 channels
Channel positions : Front: L C R, Side: L R, LFE
Sampling rate : 48.0 KHz
Compression mode : Lossy
Stream size : 193 MiB (9%)
Title : Original
Language : English
Default : No
Forced : No
Text #1
ID : 4
Format : UTF-8
Codec ID : S_TEXT/UTF8
Codec ID/Info : UTF-8 Plain Text
Title : by Swan
Language : Russian
Default : No
Forced : No
Text #2
ID : 5
Format : UTF-8
Codec ID : S_TEXT/UTF8
Codec ID/Info : UTF-8 Plain Text
Title : Original
Language : English
Default : No
Forced : No
01. Savior / Спаситель
02. Metallo / Металло
03. Rabid / Вирус
04. Echo / Эхо
05. Roulette / Рулетка
06. Crossfire / Меж двух огней
07. Kandor / Кандор
08. Idol / Идол
09. Pandora / Пандора
10. Disciple / Ученик
11. Absolute Justice / Абсолютная справедливость
12. Warrior / Воитель
13. Persuasion / Убеждение
14. Conspiracy / Заговор
15. Escape / Уикенд
16. Checkmate / Шах и мат
17. Upgrade / Апгрейд
18. Charade / Шарада
19. Sacrifice / Жертвоприношение
20. Hostage / Заложник
21. Salvation / Спасение



   Похожие торренты   Торрент   Размер 
В этой теме нет новых непрочитанных сообщений. Тайны Смолвиля / Smallville [S08] (2008-2009) BDRip 720p | СТС, Sony Sci-Fi

97 | 51

49.77 ГБ

В этой теме нет новых непрочитанных сообщений. Тайны Смолвиля / Smallville [S10] (2010-2011) BDRip 720p | Ю

99 | 28

49.42 ГБ

В этой теме нет новых непрочитанных сообщений. Тайны Смолвиля / Smallville [S09] (2009) BDRip-AVC

25 | 8

19.08 ГБ

В этой теме нет новых непрочитанных сообщений. Тайны Смолвиля / Smallville [S09] (2009) BDRip-AVC

5 | 4

19.91 ГБ

В этой теме нет новых непрочитанных сообщений. Тайны Смолвиля / Smallville [S10] (2010) BDRip-AVC

26 | 7

18.25 ГБ

В этой теме нет новых непрочитанных сообщений. Тайны Смолвиля / Smallville [S10] (2010) BDRip-AVC

6 | 4

19.5 ГБ

В этой теме нет новых непрочитанных сообщений. Тайны Смолвиля / Smallville [S07] (2007-2008) BDRip 720p | СТС, AXN Sci-Fi

118 | 20

45.18 ГБ




Вы не можете начинать темы
Вы не можете отвечать на сообщения
Вы не можете редактировать свои сообщения
Вы не можете удалять свои сообщения
Вы не можете добавлять вложения

Перейти:  
Для Мосгорсуда, Роскомнадзора и рекламодателей: mosgorsud-torrent[собачка]yandex.ru
 Вход
ppkBB3cker v.2 © 2008-2014 @ PPK
[ Time : 0.033s | 16 Queries | GZIP : Off ]

cron