img image001 image001 image001 image001 image001 image001 image001 image001 image001 image001 image001 image001 image001 image001 image001

Planets Sun Sun Sun
Статистика раздачи
Автор: Nickolas3434 | Размер: 18.18 ГБ | Добавлен: 21 ноя 2015
Раздают: 77    Качают: 58
Скачать торрент
Скачать торрент
Описание торрента

СообщениеДобавлено: 21 ноя 2015 

Информация о сериале
Название: Как я встретил вашу маму
Оригинальное название: How I Met Your Mother
Годы выхода: 2008-2009
Жанр: комедия, мелодрама
Авторы идеи: Картер Бэйс /Carter Bays/, Крейг Томас /Craig Thomas/
Режиссеры: Памела Фрайман /Pamela Fryman/, Роб Гринберг /Rob Greenberg/, Майкл Дж. Ши /Michael J. Shea/ и др.
В ролях: Джош Рэднор /Josh Radnor/, Нил Патрик Харрис /Neil Patrick Harris/, Коби Смолдерс /Cobie Smulders/, Джейсон Сигел /Jason Segel/, Элисон Хэннигэн /Alyson Hannigan/, Боб Сагет /Bob Saget/, Линдси Фонсека /Lyndsy Fonseca/, Дэвид Генри /David Henrie/, Бенжамин Колдык /Benjamin Koldyke/ и др.
О сериале:
«Как я встретил вашу маму» — комедия про Теда и про то, как он влюбился. Все неприятности начинаются с того, что лучший друг Теда, Маршалл, вдруг неожиданно сообщил, что он хочет сделать предложение своей давней подруге, Лили, воспитательнице детского сада. К тому времени Тед понимает, что ему нужно прилагать больше усилий, если он действительно надеется найти свою настоящую любовь. Помогает ему в этих поисках его друг Барни, убежденный холостяк, вечно со своим, иногда чересчур, мнением на все происходящее, со склонностью к костюмам и верным способом познакомиться с девушками. Когда Тед встречает Робин, он решает, что это любовь с первого взгляда, но у судьбы в запасе есть кое-что еще.

Страна: США
Студии: 20th Century Fox Television / Bays Thomas Productions
Продолжительность: 24 x ~ 00:22:00
Перевод:
Профессиональный (одноголосый, закадровый) - Кураж-Бамбей
Профессиональный (двухголосый, закадровый) - Кураж-Бамбей по заказу Paramount Comedy
Профессиональный (многоголосый, закадровый) - Кравец по заказу MTV
Файл
Кодек: H.264
Качество: WEB-DL 720p
Видео: 1280x720 at 23.976 fps, MPEG-4 AVC, ~4000 kbps avg
Аудио#1: Russian: 48 kHz, AC3, 2/0 (L,R) ch, ~192.00 kbps avg |Одноголосый закадровый, Кураж-Бамбей|
Аудио#2: Russian: 48 kHz, AC3, 2/0 (L,R) ch, ~192.00 kbps avg |Двухголосый закадровый, Paramount Comedy|
Аудио#3: Russian: 48 kHz, AC3, 2/0 (L,R) ch, ~192.00 kbps avg |Многоголосый закадровый, MTV|
Аудио#4: English: 48 kHz, AC3, 3/2 (L,C,R,l,r) + LFE ch, ~384.00 kbps avg |Оригинал|
Субтитры: Russian (Full), English (Full)

General
Complete name : HIMYM.S05E01.720p.WEB-DL.3xRus.Eng.mkv
Format : Matroska
Format version : Version 4 / Version 2
File size : 771 MiB
Duration : 21mn 31s
Overall bit rate : 5 008 Kbps
Movie name : How I Met Your Mother - Season 5 Episode 1 - Defenitions / Определения
Encoded date : UTC 2015-08-14 17:19:17
Writing application : mkvmerge v7.7.0 ('Six Voices') 32bit built on Feb 28 2015 23:23:00
Writing library : libebml v1.3.1 + libmatroska v1.4.2
DURATION : 00:21:31.744000000
NUMBER_OF_FRAMES : 40367
NUMBER_OF_BYTES : 31001856
_STATISTICS_WRITING_APP : mkvmerge v7.7.0 ('Six Voices') 32bit built on Feb 28 2015 23:23:00
_STATISTICS_WRITING_DATE_UTC : 2015-08-14 17:19:17
_STATISTICS_TAGS : BPS DURATION NUMBER_OF_FRAMES NUMBER_OF_BYTES
Video
ID : 1
Format : AVC
Format/Info : Advanced Video Codec
Format profile : High@L3.1
Format settings, CABAC : No
Format settings, ReFrames : 2 frames
Format settings, GOP : N=1
Codec ID : V_MPEG4/ISO/AVC
Duration : 21mn 31s
Bit rate : 3 948 Kbps
Width : 1 280 pixels
Height : 720 pixels
Display aspect ratio : 16:9
Frame rate mode : Constant
Frame rate : 23.976 fps
Color space : YUV
Chroma subsampling : 4:2:0
Bit depth : 8 bits
Scan type : Progressive
Bits/(Pixel*Frame) : 0.179
Stream size : 608 MiB (79%)
Title : HIMYM - S05E01 - Defenitions
Language : English
Default : Yes
Forced : No
Color range : Limited
Color primaries : BT.709
Transfer characteristics : BT.709
Matrix coefficients : BT.709
Audio #1
ID : 2
Format : AC-3
Format/Info : Audio Coding 3
Mode extension : CM (complete main)
Format settings, Endianness : Big
Codec ID : A_AC3
Duration : 21mn 31s
Bit rate mode : Constant
Bit rate : 192 Kbps
Channel(s) : 2 channels
Channel positions : Front: L R
Sampling rate : 48.0 KHz
Compression mode : Lossy
Stream size : 29.6 MiB (4%)
Title : VO Кураж-Бамбей
Language : Russian
Default : Yes
Forced : No
Audio #2
ID : 3
Format : AC-3
Format/Info : Audio Coding 3
Mode extension : CM (complete main)
Format settings, Endianness : Big
Codec ID : A_AC3
Duration : 21mn 31s
Bit rate mode : Constant
Bit rate : 192 Kbps
Channel(s) : 2 channels
Channel positions : Front: L R
Sampling rate : 48.0 KHz
Compression mode : Lossy
Stream size : 29.6 MiB (4%)
Title : DVO Paramount Comedy / Кураж-Бамбей 2015
Language : Russian
Default : No
Forced : No
Audio #3
ID : 4
Format : AC-3
Format/Info : Audio Coding 3
Mode extension : CM (complete main)
Format settings, Endianness : Big
Codec ID : A_AC3
Duration : 21mn 31s
Bit rate mode : Constant
Bit rate : 192 Kbps
Channel(s) : 2 channels
Channel positions : Front: L R
Sampling rate : 48.0 KHz
Compression mode : Lossy
Stream size : 29.6 MiB (4%)
Title : MVO Кравец
Language : Russian
Default : No
Forced : No
Audio #4
ID : 5
Format : AC-3
Format/Info : Audio Coding 3
Mode extension : CM (complete main)
Format settings, Endianness : Big
Codec ID : A_AC3
Duration : 21mn 31s
Bit rate mode : Constant
Bit rate : 384 Kbps
Channel(s) : 6 channels
Channel positions : Front: L C R, Side: L R, LFE
Sampling rate : 48.0 KHz
Compression mode : Lossy
Stream size : 59.1 MiB (8%)
Title : Original
Language : English
Default : No
Forced : No
Text #1
ID : 6
Format : UTF-8
Codec ID : S_TEXT/UTF8
Codec ID/Info : UTF-8 Plain Text
Language : Russian
Default : No
Forced : No
Text #2
ID : 7
Format : UTF-8
Codec ID : S_TEXT/UTF8
Codec ID/Info : UTF-8 Plain Text
Language : English
Default : No
Forced : No
01. Definitions / Определения
02. Double Date / Двойное свидание
03. Robin 101 / Робин для чайников
04. The Sexless Innkeeper / Бесполый трактирщик
05. Duel Citizenship / Дуэль гражданств
06. Bagpipes / Волынки
07. The Rough Patch / Чёрная полоса
08. The Playbook / Книга правил съёма
09. Slapsgiving 2: Revenge of the Slap / День Пощёчедавания 2: Месть пощёчины
10. The Window / Окно
11. Last Cigarette Ever / Самая последняя сигарета
12. Girls Vs. Suits / Девушки против костюмов
13. Jenkins / Дженкинс
14. Perfect Week / Идеальная неделя
15. Rabbit or Duck / Кролик или утка
16. Hooked / На крючке
17. Of Course / Конечно
18. Say Cheese / Улыбочку
19. Zoo or False / Правда или жжошь
20. Home Wreckers / Развалюха
21. Twin Beds / Две кровати
22. Robots Vs. Wrestlers / Роботы против борцов
23. The Wedding Bride / Свадебная невеста
24. Doppelgangers / Двойники



   Похожие торренты   Торрент   Размер 
В этой теме нет новых непрочитанных сообщений. Как я встретил вашу маму / How I Met Your Mother [S04] (2008-2009) WEB-DL 720p | Кураж-Бамбей, Paramount Comedy, MTV

87 | 37

17.99 ГБ

В этой теме нет новых непрочитанных сообщений. Как я встретил вашу маму / How I Met Your Mother [S01] (2005-2006) WEB-DL 720p | Кураж-Бамбей, Paramount Comedy, MTV

170 | 69

17.72 ГБ

В этой теме нет новых непрочитанных сообщений. Как я встретил вашу маму / How I Met Your Mother [S03] (2007-2008) WEB-DL 720p | Кураж-Бамбей, Paramount Comedy, MTV

140 | 20

15.08 ГБ

В этой теме нет новых непрочитанных сообщений. Как я встретил вашу маму / How I Met Your Mother [S02] (2006-2007) WEB-DL 720p | Кураж-Бамбей, Paramount Comedy, MTV

110 | 26

17.49 ГБ

В этой теме нет новых непрочитанных сообщений. Как я встретил вашу маму / How I Met Your Mother [S06] (2010-2011) WEB-DL 720p от Кураж-Бамбей

80 | 18

17.4 ГБ

В этой теме нет новых непрочитанных сообщений. Как я встретил Вашу маму / How I Met Your Mother [S05] (2010) HDTVRip от Кураж-Бамбей

121 | 20

4.64 ГБ

В этой теме нет новых непрочитанных сообщений. Как я встретил Вашу маму / How I Met Your Mother [s4] (2008-2009) HDTVRip | Кураж-Бамбей

118 | 40

4.18 ГБ




Вы не можете начинать темы
Вы не можете отвечать на сообщения
Вы не можете редактировать свои сообщения
Вы не можете удалять свои сообщения
Вы не можете добавлять вложения

Перейти:  
Для Мосгорсуда, Роскомнадзора и рекламодателей: mosgorsud-torrent[собачка]yandex.ru
 Вход
ppkBB3cker v.2 © 2008-2014 @ PPK
[ Time : 0.067s | 16 Queries | GZIP : Off ]

Торрент трекер RUTOR.IN, Не можете зайти на rutor.org? Какой новый адрес рутор? Какое зеркало рутор? Не работает rutor.org и зеркала? Тогда наш торрент специально для вас. Rutor.in неофициальное зеркало rutor. В случае если у Вас заблокирован rutor или вдруг Вы не можете на него зайти, то Вы без труда сможете скачать бесплатно и без рекламы последние новинки кино, игр, сериалов и прочего у нас, на Rutor.in. Не нужно использовать прокси, чтобы зайти на рутор, достаточно воспользоваться нашим ресурсом. Все новые фильмы, игры, сериалы, книги и музыка за 2013 и 2014 годы через торрент бесплатно. Скачивайте фильмы в хорошем качестве, игры для пк, xbox, playstation без регистрации. У нас вы найдете новые Зарубежные сериалы и Русские сериалы 2013, 2014, 2015 годов. Оставайтесь с нами, качайте любимые фильмы, игры, сериалы, книги и музыку.