img image001 image001 image001 image001 image001 image001 image001 image001 image001 image001 image001 image001 image001 image001 image001

Planets Sun Sun Sun
Статистика раздачи
Автор: Nickolas3434 | Размер: 10.08 ГБ | Добавлен: 25 ноя 2015
Раздают: 4    Качают: 8
Скачать торрент
Скачать торрент
Описание торрента

СообщениеДобавлено: 25 ноя 2015 


Информация о фильме
Название: Дюки из Хаззарда / Придурки из Хаззарда
Оригинальное название: The Dukes of Hazzard
Год выхода: 1980
Жанр: боевик, комедия, приключения
Режиссер: Пол Бэксли, Дон МакДугалл, Холлингсворт Морс
В ролях: Денвер Пайл, Соррел Бук, Кэтрин Бах, Бен Джонс, Джеймс Бест, Уэйлон Дженнингс, Том Вопат, Джон Шнайдер, Сонни Шроер, Рик Херст
Описание: Телесериал повествует о приключениях двух двоюродных братьев Бо и Люка Дьюков, проживающих в вымышленном графстве Хазард, штат Джорджия и использующим в качестве средства передвижения Dodge Charger 1969 года выпуска, характерной окраски (с изображением флага Конфедерации на крыше) и под названием «Генерал Ли» (в честь знаменитого военачальника Конфедерации, бывшего командующего армии Северной Вирджинии).

Страна: США
Продолжительность: 23x ~ 49 мин
Перевод: Авторский (одноголосый закадровый) - Вячеслав Котов
Релиз от:
Файл
Формат: MKV
Качество: DVDRip-AVC
Видео: H.264, 656x480 (4:3), 23.976 fps, ~1019 Kbps, 0.135 bit/pixel
Аудио №1: 48 kHz, MPEG Layer 3, 1 ch, ~128.00 kbps avg | Russian | VO
Аудио №2: 48 kHz, MPEG Layer 3, 1 ch, ~128.00 kbps avg | English | Original

General
Unique ID : 186789346499917022671039365463254919498 (0x8C8651CF72F5194789F666897396694A)
Complete name : Dukes.of.Hazzard.S03E01.DVDRip-AVC.[DukesBoys].mkv
Format : Matroska
Format version : Version 2
File size : 449 MiB
Duration : 49mn 9s
Overall bit rate : 1 277 Kbps
Movie name : Дюки из Хаззарда / Сезон: 3 / Эпизод: 01 - Карнавал трепета, Часть: 1 [Релиз от: DukesBoys]
Encoded date : UTC 2014-01-20 23:20:22
Writing application : mkvmerge v5.2.1 ('A Far Off Place') built on Jan 2 2012 23:21:10
Writing library : libebml v1.2.3 + libmatroska v1.3.0
Video
ID : 1
Format : AVC
Format/Info : Advanced Video Codec
Format profile : High@L4.1
Format settings, CABAC : Yes
Format settings, ReFrames : 5 frames
Codec ID : V_MPEG4/ISO/AVC
Duration : 49mn 9s
Bit rate : 1 019 Kbps
Width : 656 pixels
Height : 480 pixels
Display aspect ratio : 4:3
Frame rate mode : Constant
Frame rate : 23.976 fps
Color space : YUV
Chroma subsampling : 4:2:0
Bit depth : 8 bits
Scan type : Progressive
Bits/(Pixel*Frame) : 0.135
Stream size : 350 MiB (78%)
Writing library : x264 core 120 r2164 da19765
Encoding settings : cabac=1 / ref=5 / deblock=1:-1:-1 / analyse=0x3:0x113 / me=umh / subme=9 / psy=1 / psy_rd=1.00:0.00 / mixed_ref=1 / me_range=24 / chroma_me=1 / trellis=2 / 8x8dct=1 / cqm=0 / deadzone=21,11 / fast_pskip=1 / chroma_qp_offset=-2 / threads=3 / sliced_threads=0 / nr=0 / decimate=1 / interlaced=0 / bluray_compat=0 / constrained_intra=0 / bframes=5 / b_pyramid=2 / b_adapt=2 / b_bias=0 / direct=1 / weightb=1 / open_gop=0 / weightp=2 / keyint=240 / keyint_min=23 / scenecut=40 / intra_refresh=0 / rc_lookahead=100 / rc=2pass / mbtree=1 / bitrate=1019 / ratetol=1.0 / qcomp=0.70 / qpmin=0 / qpmax=51 / qpstep=4 / cplxblur=20.0 / qblur=0.5 / vbv_maxrate=50000 / vbv_bufsize=50000 / nal_hrd=none / ip_ratio=1.40 / aq=1:1.00
Language : English
Default : Yes
Forced : No
Audio #1
ID : 2
Format : MPEG Audio
Format version : Version 1
Format profile : Layer 3
Codec ID : A_MPEG/L3
Codec ID/Hint : MP3
Duration : 49mn 9s
Bit rate mode : Constant
Bit rate : 128 Kbps
Channel(s) : 1 channel
Sampling rate : 48.0 KHz
Compression mode : Lossy
Stream size : 45.0 MiB (10%)
Title : VO (Котов)
Writing library : LAME3.99r
Encoding settings : -m m -V 4 -q 2 -lowpass 20.5 -b 128
Language : Russian
Default : Yes
Forced : No
Audio #2
ID : 3
Format : MPEG Audio
Format version : Version 1
Format profile : Layer 3
Codec ID : A_MPEG/L3
Codec ID/Hint : MP3
Duration : 49mn 9s
Bit rate mode : Constant
Bit rate : 128 Kbps
Channel(s) : 1 channel
Sampling rate : 48.0 KHz
Compression mode : Lossy
Stream size : 45.0 MiB (10%)
Title : Original
Writing library : LAME3.99r
Encoding settings : -m m -V 4 -q 2 -lowpass 20.5 -b 128
Language : English
Default : No
Forced : No



   Похожие торренты   Торрент   Размер 
В этой теме нет новых непрочитанных сообщений. Дюки из Хаззарда / Придурки из Хаззарда / The Dukes of Hazzard [S02] (1979-1980) DVDRip-AVC | Котов

25 | 9

10.08 ГБ

В этой теме нет новых непрочитанных сообщений. Дюки из Хаззарда / Придурки из Хаззарда / The Dukes of Hazzard [S01] (1979) DVDRip-AVC | Котов

25 | 12

5.7 ГБ

В этой теме нет новых непрочитанных сообщений. Придурки из Хаззарда / Dukes of Hazzard (2005) DVDRip

97 | 22

697.54 МБ

В этой теме нет новых непрочитанных сообщений. Придурки из Хаззарда: Начало / The Dukes of Hazzard: The Beginning (2007) DVDRip

50 | 4

699.48 МБ

В этой теме нет новых непрочитанных сообщений. Придурки из Хаззарда: Начало / Dukes of Hazzard: The Beginning (2007) DVDRip

37 | 14

1.46 ГБ

В этой теме нет новых непрочитанных сообщений. Придурки из Хаззарда / The Dukes of Hazzard (2005) HD-DVDRip 720p | P2 | Полная версия

520 | 65

4.37 ГБ

В этой теме нет новых непрочитанных сообщений. Придурки из Хаззарда / The Dukes of Hazzard (2005) HD-DVDRip от FlintFilms | Полная версия / Unrated

18 | 8

2.57 ГБ




Вы не можете начинать темы
Вы не можете отвечать на сообщения
Вы не можете редактировать свои сообщения
Вы не можете удалять свои сообщения
Вы не можете добавлять вложения

Перейти:  
Для Мосгорсуда, Роскомнадзора и рекламодателей: mosgorsud-torrent[собачка]yandex.ru
 Вход
ppkBB3cker v.2 © 2008-2014 @ PPK
[ Time : 0.028s | 15 Queries | GZIP : Off ]

Торрент трекер RUTOR.IN, Не можете зайти на rutor.org? Какой новый адрес рутор? Какое зеркало рутор? Не работает rutor.org и зеркала? Тогда наш торрент специально для вас. Rutor.in неофициальное зеркало rutor. В случае если у Вас заблокирован rutor или вдруг Вы не можете на него зайти, то Вы без труда сможете скачать бесплатно и без рекламы последние новинки кино, игр, сериалов и прочего у нас, на Rutor.in. Не нужно использовать прокси, чтобы зайти на рутор, достаточно воспользоваться нашим ресурсом. Все новые фильмы, игры, сериалы, книги и музыка за 2013 и 2014 годы через торрент бесплатно. Скачивайте фильмы в хорошем качестве, игры для пк, xbox, playstation без регистрации. У нас вы найдете новые Зарубежные сериалы и Русские сериалы 2013, 2014, 2015 годов. Оставайтесь с нами, качайте любимые фильмы, игры, сериалы, книги и музыку.