img image001 image001 image001 image001 image001 image001 image001 image001 image001 image001 image001 image001 image001 image001 image001

Planets Sun Sun Sun
Статистика раздачи
Автор: Nickolas3434 | Размер: 33.3 ГБ | Добавлен: 25 ноя 2015
Раздают: 30    Качают: 27
Скачать торрент
Скачать торрент
Описание торрента

СообщениеДобавлено: 25 ноя 2015 

Информация о сериале
Название: Мыслить как преступник
Оригинальное название: Criminal Minds
Годы выхода: 2013-2014
Жанр: драма, криминал, детектив, триллер
Автор идеи: Джефф Дэвис /Jeff Davis/
Режиссеры: Гленн Кершоу /Glenn Kershaw/, Феликс Энрикез Алькала /Félix Enríquez Alcalá/, Эдвард Аллен Бернеро /Edward Allen Bernero/ и др.
В ролях: Джо Мантенья /Joe Mantegna/, Томас Гибсон /Thomas Gibson/, Шемар Мур /Shemar Moore/, Мэттью Грей Гублер /Matthew Gray Gubler/, А.Дж. Кук /A.J. Cook/, Кирстен Вангснесс /Kirsten Vangsness/, Джинн Трипплхорн /Jeanne Tripplehorn/ и др.
О сериале:
Главные герои сериала - команда лучших следователей ФБР, способных понять и проанализировать ход мыслей самых изощрённых преступников, предугадать их дальнейшие поступки и тем самым предотвратить ужасные преступления. Когда обычные криминалисты заходят в тупик, на помощь им приходят специалисты по поведенческому анализу.
Вместо тщательного изучения улик они пытаются найти и понять мотивы преступления, досконально вникая в каждый шаг преступника и пытаясь мыслить, как он. Работая на месте преступления, эти профессионалы словно расследуют его изнутри, стараясь понять мысли преступника, какими бы тёмными они ни были.

Страна: США, Канада
Студии: The Mark Gordon Company / Paramount Network Television / ABC Studios
Продолжительность: 24 x ~ 00:43:00
Перевод: Профессиональный (многоголосый, закадровый) - Fox
Релиз от:
Файл
Кодек: H.264
Качество: WEB-DL 720p
Видео: 1280x720 at 23.976 fps, MPEG-4 AVC, ~4000 kbps avg
Аудио#1: Russian: 48 kHz, AC3, 2/0 (L,R) ch, ~192.00 kbps avg |Многоголосый закадровый, Fox|
Аудио#2: English: 48 kHz, AC3, 3/2 (L,C,R,l,r) + LFE ch, ~384.00 kbps avg |Оригинал|
Субтитры: none

General
Complete name : Criminal.Minds.s09e01.WEBDL.720p.NewStudio.TV.mkv
Format : Matroska
Format version : Version 2
File size : 1.41 GiB
Duration : 41mn 48s
Overall bit rate : 4 825 Kbps
Encoded date : UTC 2013-11-12 18:58:09
Writing application : mkvmerge v2.9.9 ('Tutu') built on Nov 25 2009 21:13:32
Writing library : libebml v0.7.9 + libmatroska v0.8.1
Video
ID : 1
Format : AVC
Format/Info : Advanced Video Codec
Format profile : High@L3.1
Format settings, CABAC : No
Format settings, ReFrames : 2 frames
Format settings, GOP : N=1
Codec ID : V_MPEG4/ISO/AVC
Duration : 41mn 48s
Bit rate : 4 153 Kbps
Width : 1 280 pixels
Height : 720 pixels
Display aspect ratio : 16:9
Frame rate mode : Constant
Frame rate : 23.976 fps
Color space : YUV
Chroma subsampling : 4:2:0
Bit depth : 8 bits
Scan type : Progressive
Bits/(Pixel*Frame) : 0.188
Stream size : 1.21 GiB (86%)
Language : English
Default : No
Forced : No
Color range : Limited
Color primaries : BT.709
Transfer characteristics : BT.709
Matrix coefficients : BT.709
Audio #1
ID : 2
Format : AC-3
Format/Info : Audio Coding 3
Mode extension : CM (complete main)
Format settings, Endianness : Big
Codec ID : A_AC3
Duration : 41mn 48s
Bit rate mode : Constant
Bit rate : 192 Kbps
Channel(s) : 2 channels
Channel positions : Front: L R
Sampling rate : 48.0 KHz
Compression mode : Lossy
Stream size : 57.4 MiB (4%)
Language : Russian
Default : Yes
Forced : No
Audio #2
ID : 3
Format : AC-3
Format/Info : Audio Coding 3
Mode extension : CM (complete main)
Format settings, Endianness : Big
Codec ID : A_AC3
Duration : 41mn 48s
Bit rate mode : Constant
Bit rate : 384 Kbps
Channel(s) : 6 channels
Channel positions : Front: L C R, Side: L R, LFE
Sampling rate : 48.0 KHz
Compression mode : Lossy
Stream size : 115 MiB (8%)
Language : English
Default : No
Forced : No
01. The Inspiration / Вдохновение
02. The Inspired / Вдохновленный
03. Final Shot / Последний выстрел
04. To Bear Witness / Свидетель
05. Route 66 / Шоссе 66
06. In the Blood / В крови
07. Gatekeeper / Хранитель
08. The Return / Возвращение
09. Strange Fruit / Странный фрукт
10. The Caller / Звонящий
11. Bully / Задира
12. The Black Queen / Черная королева
13. The Road Home / Дорога домой
14. 200 / 200
15. Mr. & Mrs. Anderson / Мистер и миссис Андерсон
16. Gabby / Гэбби
17. Persuasion / Подстрекательство
18. Rabid / Бешенство
19. The Edge of Winter / Исход зимы
20. Blood Relations / Кровные узы
21. What Happens in Mecklinburg... / Что происходит в Мекленбурге
22. Fatal / Судьба
23. Angels / Ангелы
24. Demons / Демоны



   Похожие торренты   Торрент   Размер 
В этой теме нет новых непрочитанных сообщений. Мыслить как преступник / Criminal Minds [S08] (2012-2013) WEB-DL 720p | Fox

60 | 40

32.41 ГБ

В этой теме нет новых непрочитанных сообщений. Мыслить как преступник / Criminal Minds [10x01-03 из 24] (2014) WEB-DL 720p от MediaClub | P | Fox

34 | 62

4.17 ГБ

В этой теме нет новых непрочитанных сообщений. Мыслить как преступник / Criminal Minds [10x01 из 24] (2014) WEB-DL 720p от MediaClub | P | Fox

58 | 3

1.39 ГБ

В этой теме нет новых непрочитанных сообщений. Мыслить как преступник / Criminal Minds [10x01-02 из 24] (2014) WEB-DL 720p от MediaClub | P | Fox

30 | 980

2.77 ГБ

В этой теме нет новых непрочитанных сообщений. Мыслить как преступник / Criminal Minds [09x01-14 из 24] (2013) WEB-DLRip | Fox

66 | 181

6.83 ГБ

В этой теме нет новых непрочитанных сообщений. Мыслить как преступник / Criminal Minds [09x01-15 из 24] (2013) WEB-DLRip | Fox

52 | 88

7.31 ГБ

В этой теме нет новых непрочитанных сообщений. Мыслить как преступник / Criminal Minds [09x01-21 из 24] (2013) WEB-DLRip | Fox

78 | 147

10.24 ГБ




Вы не можете начинать темы
Вы не можете отвечать на сообщения
Вы не можете редактировать свои сообщения
Вы не можете удалять свои сообщения
Вы не можете добавлять вложения

Перейти:  
Для Мосгорсуда, Роскомнадзора и рекламодателей: mosgorsud-torrent[собачка]yandex.ru
 Вход
ppkBB3cker v.2 © 2008-2014 @ PPK
[ Time : 0.048s | 17 Queries | GZIP : Off ]

cron