img image001 image001 image001 image001 image001 image001 image001 image001 image001 image001 image001 image001 image001 image001 image001

Planets Sun Sun Sun
Статистика раздачи
Автор: Nickolas3434 | Размер: 1.37 ГБ | Добавлен: 26 ноя 2015
Раздают: 7    Качают: 21
Скачать торрент
Скачать торрент
Описание торрента

СообщениеДобавлено: 26 ноя 2015 


Информация о фильме
Оригинальное название: Восьмидесятые
Год выпуска: 2015
Жанр: Комедия, драма, мелодрама
Режиссёр: Филипп Коршунов
В ролях: Александр Якин, Мария Аронова, Александр Половцев, Арина Постникова, Дмитрий Миллер, Леонид Громов, Юлия Сулес, Дмитрий Белоцерковский, Анастасия Балякина, Наталья Земцова, Роман Фомин, Наталья Скоморохова, Анна Цуканова-Котт, Вячеслав Евлантьев, Егор Губарев
О фильме: Жизнь обычного московского студента 80-х Ивана Смирнова и его друзей продолжит удивлять зрителей. Кажется, что у героев уже все хорошо: к Ване вернулась Инга, Катя и Макар помирились, Маша с Сергеем ждут ребенка, а Борис уехал жить в Израиль… Но с этого новые приключения только начинаются. Ваня получает работу фотографа в самом престижном издании страны.

Выпущено: Россия, Sony Pictures Television, «ЛЕАН-М», «СОЛО ФИЛЬМ»
Продолжительность: 00:24:00 / Серия
Перевод: Не требуется
Файл
Качество: SATRip
Формат: AVI
Видео: XviD, 704x384 (16:9), ~ 1850 Кбит/с, 25 кадр/с, 0.277 bit/pixel
Аудио: Русский, MP3, 48000 Гц, 128 Кбит/с, 2 канала (Стерео)
Субтитры: Нет

Раздача ведётся путём добавления новых серий, при каждом добавлении создаётся новый торрент. Чтобы начать докачку новой серии, пользователям необходимо сделать следующее:
- Остановить скачивание.
- Удалить старый торрент у себя из клиента (старые серии удалять не надо).
- Скачать новый торрент и запустить его у себя в клиенте вместо старого, при этом указать клиенту путь в старую папку куда и должно происходить скачивание новых серий.
Ваш клиент при этом должен произвести хеширование (проверку) старой папки (если не производит сам - помогите ему сделать это), и будет докачивать только те серии которых у вас ещё нет. Старые серии при этом не удаляются, а продолжают раздаваться!
Если вы уже удалили старые серии, то предотвратить повторную закачку старых серий можно, отжав галочку в соответствующих местах при запуске нового торрента. По возможности, желательно не удалять старые серии как можно дольше, чтобы релизер не столько продолжал раздавать старые серии, а смог сконцентрироваться на новых.
General
Complete name : 80-e.s05.e01.2015.SATRip.avi
Format : AVI
Format/Info : Audio Video Interleave
File size : 350 MiB
Duration : 24mn 20s
Overall bit rate : 2 011 Kbps
Writing application : VirtualDubMod 1.5.10.3 | www.virtualdub-fr.org || (build 2550/release)
Writing library : VirtualDubMod build 2550/release
Video
ID : 0
Format : MPEG-4 Visual
Format profile : Advanced Simple@L5
Format settings, BVOP : 1
Format settings, QPel : No
Format settings, GMC : No warppoints
Format settings, Matrix : Custom
Codec ID : XVID
Codec ID/Hint : XviD
Duration : 24mn 20s
Bit rate : 1 873 Kbps
Width : 704 pixels
Height : 384 pixels
Display aspect ratio : 16:9
Frame rate : 25.000 fps
Color space : YUV
Chroma subsampling : 4:2:0
Bit depth : 8 bits
Scan type : Progressive
Compression mode : Lossy
Bits/(Pixel*Frame) : 0.277
Stream size : 326 MiB (93%)
Writing library : XviD 73
Audio
ID : 1
Format : MPEG Audio
Format version : Version 1
Format profile : Layer 3
Codec ID : 55
Codec ID/Hint : MP3
Duration : 24mn 20s
Bit rate mode : Constant
Bit rate : 128 Kbps
Channel(s) : 2 channels
Sampling rate : 48.0 KHz
Compression mode : Lossy
Stream size : 22.3 MiB (6%)
Alignment : Aligned on interleaves
Interleave, duration : 40 ms (1.00 video frame)
Interleave, preload duration : 504 ms
Writing library : LAME3.99r
Encoding settings : -m s -V 4 -q 0 -lowpass 17 -b 128


Автор рипа - ivandubskoj



   Похожие торренты   Торрент   Размер 
В этой теме нет новых непрочитанных сообщений. Восьмидесятые [05х01-04 из 20] (2015) SATRip от ivandubskoj

159 | 66

1.71 ГБ

В этой теме нет новых непрочитанных сообщений. Восьмидесятые [05х01-02 из 20] (2015) SATRip

63 | 19

967.74 МБ

В этой теме нет новых непрочитанных сообщений. Восьмидесятые [05х01-02 из 20] (2015) SATRip

95 | 21

1.25 ГБ

В этой теме нет новых непрочитанных сообщений. Восьмидесятые [05х01-02 из 20] (2015) SATRip

60 | 6

645.63 МБ

В этой теме нет новых непрочитанных сообщений. Восьмидесятые [05х01-04 из 20] (2015) DVB

113 | 22

2.49 ГБ

В этой теме нет новых непрочитанных сообщений. Восьмидесятые [05х01-02 из 20] (2015) DVB

10 | 1

1.24 ГБ

В этой теме нет новых непрочитанных сообщений. Деффчонки [05х01] (2015) WEB-DLRip от ivandubskoj

58 | 36

1011.43 МБ




Вы не можете начинать темы
Вы не можете отвечать на сообщения
Вы не можете редактировать свои сообщения
Вы не можете удалять свои сообщения
Вы не можете добавлять вложения

Перейти:  
Для Мосгорсуда, Роскомнадзора и рекламодателей: mosgorsud-torrent[собачка]yandex.ru
 Вход
ppkBB3cker v.2 © 2008-2014 @ PPK
[ Time : 0.065s | 15 Queries | GZIP : Off ]

cron