img image001 image001 image001 image001 image001 image001 image001 image001 image001 image001 image001 image001 image001 image001 image001

Planets Sun Sun Sun
Статистика раздачи
Автор: Nickolas3434 | Размер: 49.42 ГБ | Добавлен: 28 ноя 2015
Раздают: 106    Качают: 28
Скачать торрент
Скачать торрент
Описание торрента

СообщениеДобавлено: 28 ноя 2015 

Информация о сериале
Название: Тайны Смолвиля
Оригинальное название: Smallville
Годы выхода: 2010-2011
Жанр: драма, фантастика
Авторы идеи: Альфред Гоф /Alfred Gough/, Майлз Миллар /Miles Millar/
Режиссеры: Джеймс Маршалл /James Marshall/, Грег Биман /Greg Beeman/, Майк Рол /Mike Rohl/ и др.
В ролях: Том Уэллинг /Tom Welling/ Эрика Дюранс /Erica Durance/, Кэссиди Фриман /Cassidy Freeman/, Джастин Хартли /Justin Hartley/, Эллисон Мэк /Allison Mack/, и др.
О сериале:
1989 год, метеоритный дождь в городе Смолвиль наносит невиданные разрушения, а в бездетной семье жителей Смолвиля странным образом появляется маленький ребёнок — Кларк Кент.
Прошло много лет. Кларк уже учится в школе. Его ошеломляющие способности заставляют его чаще задуматься о том, кто он собственно такой. К тому же он влюблен в одноклассницу — Лану Лэнг, чьи родители пропали во время метеоритного дождя. Этот фактор значительно осложняет их отношения. Внимательные родители Кларка пытаются любым путём сберечь его секрет, даже возбраняют ему выступать в школьной футбольной команде.
Однажды Кларк спас жизнь молодого бизнесмена Лекса Лютера, когда машина бизнесмена, потеряв управление, падает с моста в реку. С этого обстоятельства и завязывается череда многообразных похождений супермена — Кларка Кента.

Страны: США, Канада
Студии: Tollin/Robbins Productions / Millar Gough Ink / Warner Bros. Television и др.
Продолжительность: 21 x ~ 00:43:00
Перевод: Профессиональный (многоголосый, закадровый) - Ю
Рип от DON!
Файл
Кодек: H.264
Качество: BDRip 720p
Видео: 1280x720 at 23.976 fps, x264@L4.1, crf, ~7000 kbps avg
Аудио#1: Russian: 48 kHz, AC3, 2/0 (L,R) ch, ~192.00 kbps avg |Многоголосый закадровый, Ю|
Аудио#2: English: 48 kHz, AC3, 3/2 (L,C,R,l,r) + LFE ch, ~640.00 kbps avg |Оригинал|
Субтитры: Russian (Full - Swan), English (SDH), Portugese (Full)

General
Complete name : smallville.s10e01.Lazarus.720p.bluray.rus.mvo.eng.sub.mkv
Format : Matroska
Format version : Version 4 / Version 2
File size : 2.50 GiB
Duration : 42mn 24s
Overall bit rate : 8 452 Kbps
Movie name : Smallville Season 10 Episode 01 Lazarus - Лазарь [Russian - U + English + Sub]
Encoded date : UTC 2013-10-16 19:27:59
Writing application : mkvmerge v6.2.0 ('Promised Land') built on Apr 28 2013 12:22:01
Writing library : libebml v1.3.0 + libmatroska v1.4.0
Video
ID : 1
Format : AVC
Format/Info : Advanced Video Codec
Format profile : High@L4.1
Format settings, CABAC : Yes
Format settings, ReFrames : 9 frames
Codec ID : V_MPEG4/ISO/AVC
Duration : 42mn 24s
Bit rate : 7 452 Kbps
Width : 1 280 pixels
Height : 720 pixels
Display aspect ratio : 16:9
Frame rate mode : Constant
Frame rate : 23.976 fps
Color space : YUV
Chroma subsampling : 4:2:0
Bit depth : 8 bits
Scan type : Progressive
Bits/(Pixel*Frame) : 0.337
Stream size : 2.21 GiB (88%)
Title : Smallville S10E01 Lazarus
Writing library : x264 core 116 r2057 0ba8a9c
Encoding settings : cabac=1 / ref=9 / deblock=1:-3:-3 / analyse=0x3:0x133 / me=umh / subme=10 / psy=1 / psy_rd=1.00:0.00 / mixed_ref=1 / me_range=32 / chroma_me=1 / trellis=2 / 8x8dct=1 / cqm=0 / deadzone=21,11 / fast_pskip=0 / chroma_qp_offset=-2 / threads=18 / sliced_threads=0 / nr=0 / decimate=0 / interlaced=0 / bluray_compat=0 / constrained_intra=0 / bframes=7 / b_pyramid=2 / b_adapt=2 / b_bias=0 / direct=3 / weightb=1 / open_gop=0 / weightp=2 / keyint=250 / keyint_min=23 / scenecut=40 / intra_refresh=0 / rc_lookahead=40 / rc=crf / mbtree=0 / crf=17.0 / qcomp=0.65 / qpmin=0 / qpmax=40 / qpstep=4 / vbv_maxrate=50000 / vbv_bufsize=50000 / crf_max=0.0 / nal_hrd=none / ip_ratio=1.25 / pb_ratio=1.25 / aq=1:0.65
Language : English
Default : Yes
Forced : No
Audio #1
ID : 2
Format : AC-3
Format/Info : Audio Coding 3
Mode extension : CM (complete main)
Format settings, Endianness : Big
Codec ID : A_AC3
Duration : 42mn 24s
Bit rate mode : Constant
Bit rate : 192 Kbps
Channel(s) : 2 channels
Channel positions : Front: L R
Sampling rate : 48.0 KHz
Compression mode : Lossy
Stream size : 58.2 MiB (2%)
Title : MVO U @ AC3 2.0 192 kbps
Language : Russian
Default : Yes
Forced : No
Audio #2
ID : 3
Format : AC-3
Format/Info : Audio Coding 3
Mode extension : CM (complete main)
Format settings, Endianness : Big
Codec ID : A_AC3
Duration : 42mn 24s
Bit rate mode : Constant
Bit rate : 640 Kbps
Channel(s) : 6 channels
Channel positions : Front: L C R, Side: L R, LFE
Sampling rate : 48.0 KHz
Compression mode : Lossy
Stream size : 194 MiB (8%)
Title : Original
Language : English
Default : No
Forced : No
Text #1
ID : 4
Format : UTF-8
Codec ID : S_TEXT/UTF8
Codec ID/Info : UTF-8 Plain Text
Title : by Swan
Language : Russian
Default : No
Forced : No
Text #2
ID : 5
Format : UTF-8
Codec ID : S_TEXT/UTF8
Codec ID/Info : UTF-8 Plain Text
Language : English
Default : No
Forced : No
Text #3
ID : 6
Format : UTF-8
Codec ID : S_TEXT/UTF8
Codec ID/Info : UTF-8 Plain Text
Language : Portuguese
Default : No
Forced : No
Menu
00:00:00.000 : en:00:00:00.000
00:01:28.880 : en:00:01:28.880
00:07:46.758 : en:00:07:46.758
00:14:07.138 : en:00:14:07.138
00:18:53.799 : en:00:18:53.799
00:26:49.483 : en:00:26:49.483
00:33:52.864 : en:00:33:52.864
00:41:51.134 : en:00:41:51.134
01. Lazarus / Лазарь
02. Shield / Щит
03. Supergirl / Супергёрл
04. Homecoming / Встреча выпускников
05. Isis / Исида
06. Harvest / Жатва
07. Ambush / Засада
08. Abandoned / Брошенный
09. Patriot / Патриот
10. Luthor / Лютор
11. Icarus / Икар
12. Collateral / Косвенный
13. Beacon / Маяк
14. Masquerade / Маскарад
15. Fortune / Удача
16. Scion / Отпрыск
17. Kent / Кент
18. Booster / Бустер
19. Dominion / Доминион
20. Prophecy / Пророчество
21. Finale / Финал
ЦитатаКто-то писал:
[*] Сохранены оригинальные главы как на Blu-ray.



   Похожие торренты   Торрент   Размер 
В этой теме нет новых непрочитанных сообщений. Тайны Смолвиля / Smallville [S09] (2009-2010) BDRip 720p | Ю

137 | 23

48.49 ГБ

В этой теме нет новых непрочитанных сообщений. Тайны Смолвиля / Smallville [S10] (2010) BDRip-AVC

6 | 4

19.5 ГБ

В этой теме нет новых непрочитанных сообщений. Тайны Смолвиля / Smallville [S10] (2010) BDRip-AVC

26 | 7

18.25 ГБ

В этой теме нет новых непрочитанных сообщений. Тайны Смолвиля / Smallville [S01-10] (2001-2011) WEB-DL, BDRip | CTC

20 | 80

104.49 ГБ

В этой теме нет новых непрочитанных сообщений. Тайны Смолвиля / Smallville [S07] (2007-2008) BDRip 720p | СТС, AXN Sci-Fi

123 | 22

45.18 ГБ

В этой теме нет новых непрочитанных сообщений. Тайны Смолвиля / Smallville [S06] (2006-2007) BDRip 720p | СТС, AXN Sci-Fi

18 | 16

49.87 ГБ

В этой теме нет новых непрочитанных сообщений. Тайны Смолвиля / Smallville [S08] (2008-2009) BDRip 720p | СТС, Sony Sci-Fi

106 | 54

49.77 ГБ




Вы не можете начинать темы
Вы не можете отвечать на сообщения
Вы не можете редактировать свои сообщения
Вы не можете удалять свои сообщения
Вы не можете добавлять вложения

Перейти:  
Для Мосгорсуда, Роскомнадзора и рекламодателей: mosgorsud-torrent[собачка]yandex.ru
 Вход
ppkBB3cker v.2 © 2008-2014 @ PPK
[ Time : 0.024s | 15 Queries | GZIP : On ]

Торрент трекер RUTOR.IN, Не можете зайти на rutor.org? Какой новый адрес рутор? Какое зеркало рутор? Не работает rutor.org и зеркала? Тогда наш торрент специально для вас. Rutor.in неофициальное зеркало rutor. В случае если у Вас заблокирован rutor или вдруг Вы не можете на него зайти, то Вы без труда сможете скачать бесплатно и без рекламы последние новинки кино, игр, сериалов и прочего у нас, на Rutor.in. Не нужно использовать прокси, чтобы зайти на рутор, достаточно воспользоваться нашим ресурсом. Все новые фильмы, игры, сериалы, книги и музыка за 2013 и 2014 годы через торрент бесплатно. Скачивайте фильмы в хорошем качестве, игры для пк, xbox, playstation без регистрации. У нас вы найдете новые Зарубежные сериалы и Русские сериалы 2013, 2014, 2015 годов. Оставайтесь с нами, качайте любимые фильмы, игры, сериалы, книги и музыку.