img image001 image001 image001 image001 image001 image001 image001 image001 image001 image001 image001 image001 image001 image001 image001

Planets Sun Sun Sun
Статистика раздачи
Автор: Nickolas3434 | Размер: 8.07 ГБ | Добавлен: 28 ноя 2015
Раздают: 49    Качают: 38
Скачать торрент
Скачать торрент
Описание торрента

СообщениеДобавлено: 28 ноя 2015 


Информация о фильме
Название: Американцы
Оригинальное название: The Americans
Год выхода: 2013
Жанр: Боевик, политический детектив, триллер, драма, криминал
Режиссер: Адам Аркин, Гэвин О`Коннор, Томас Шламми
В ролях: Кери Расселл, Мэттью Рис, Ноа Эммерик, Холли Тейлор, Кейдрич Селлати, Аннет Махендру, Сьюзэн Миснер, Элисон Райт, Лев Горн, Ричард Томас, Марго Мартиндейл, Коста Ронин, Максимилиано Эрнандес, Дэн Флаэрти, Аарон Роман Уэй, Коттер Смит, Питер фон Берг, Энтони Аркин, Виталий Бенко, Эйми Карреро, Джон Кэрролл Линч, Тони Патано, Пегги Скотт, Маша Боровикова, Майкл Гэстон, Натали Голд, Ричард Кляйн
О фильме:
История о сложном браке двух агентов КГБ, которые под видом американцев заселяются в пригород Вашингтона сразу после того, как президентом избирают Рейгана. Подставной брак Филлипа и Элизабет с каждым днем становится все более настоящим и эмоциональным, несмотря на эскалацию холодной войны и опасные отношения, которые они должны поддерживать с сетью шпионов и информаторов. Напряжение нарастает, когда появляется новый сосед Стэн, агент ФБР, который работает в контрразведке.

1 сезон:
01. Пилот / Pilot
02. Часы / The Clock
03. Грегори / Gregory
04. Под контролем / In Control
05. Радиоразведка / Comint
06. Доверся мне / Trust Me
07. Долг и честь / Duty and Honor
08. Взаимно гарантированное уничтожение / Mutually Assured Destruction
09. Конспиративная явка / Safe House
10. Только ты / Only You
11. Тайная война / Covert War
12. Клятва / The Oath
13. Полковник / The Colonel
2 сезон:
01. Товарищи / Comrades
02. Кардинал / Cardinal
03. Перебежчик / The Walk In
04. Немного вечерней музыки / A Little Night Music
05. Сделка / The Deal
06. За красной дверью / Behind the Red Door
07. Арпанет / Arpanet
08. Новая машина / New Car
09. Боевой орел / Martial Eagle
10. Юсуф / Yousaf
11. Стелс / Stealth
12. Операция "Летопись" / Operation Chronicle
13. Эхо / Echo
3 сезон:
01. Семинар Эрхарда / EST Men
02. Багаж / Baggage
03. Дом на продажу / Open House
04. Травы на десятку / Dimebag
05. Перевал Саланг / Salang Pass
06. Заново рождённая / Born Again
07. Уолтер Таффет / Walter Taffet
08. Разоблачение / Divestment
09. Мечтают ли почтовые роботы об электроовцах? / Do Mail Robots Dream of Electric Sheep?
10. Осы / Stingers
11. Один день из жизни Антона Бакланова / One Day in the Life of Anton Baklanov
12. Я Абассин Задран / I Am Abassin Zadran
13. 8 Марта 1983 / March 8, 1983

Страна: США
Студия: DreamWorks Television
Продолжительность: 39 x ~ 00:47:00
Перевод: Профессиональный (двухголосый) [Кубик в Кубе]
Файл
Формат: MP4
Качество: WEB-DLRip | КПК
Видео: MPEG-4 AVC (x264), 640x360, ~500 kbps, 23.976 fps
Аудио: AAC LC, 48.0 KHz, 2 ch, 128 Kbps
Субтитры: Нет
Семпл

Complete name : E:KinoAmerikancy.AVC.WEB-DLRip.KPK.KvK.GFAmerikancy.S01.2013.AVC.WEB-DLRip.KPK.KvK.GFAmerikancy.s01e10.2013.AVC.WEB-DLRip.KPK.KvK.GF.mp4
Format : MPEG-4
Codec ID : M4V
File size : 214 MiB
Duration : 47mn 15s
Overall bit rate mode : Variable
Overall bit rate : 633 Kbps
Writing application : Lavf53.19.0
Video
ID : 1
Format : AVC
Format/Info : Advanced Video Codec
Format profile : High@L4.1
Format settings, CABAC : Yes
Format settings, ReFrames : 8 frames
Codec ID : avc1
Codec ID/Info : Advanced Video Coding
Duration : 47mn 15s
Source duration : 18mn 37s
Bit rate : 500 Kbps
Width : 640 pixels
Height : 360 pixels
Display aspect ratio : 16:9
Frame rate mode : Constant
Frame rate : 23.976 fps
Color space : YUV
Chroma subsampling : 4:2:0
Bit depth : 8 bits
Scan type : Progressive
Bits/(Pixel*Frame) : 0.091
Stream size : 169 MiB (79%)
Source stream size : 169 MiB (79%)
Writing library : x264 core 130 r2273 b3065e6
Encoding settings : cabac=1 / ref=8 / deblock=1:-2:-2 / analyse=0x3:0x133 / me=umh / subme=10 / psy=1 / psy_rd=1.00:0.00 / mixed_ref=1 / me_range=24 / chroma_me=1 / trellis=2 / 8x8dct=1 / cqm=0 / deadzone=21,11 / fast_pskip=1 / chroma_qp_offset=-2 / threads=3 / lookahead_threads=1 / sliced_threads=0 / nr=0 / decimate=0 / interlaced=0 / bluray_compat=0 / constrained_intra=0 / bframes=8 / b_pyramid=2 / b_adapt=2 / b_bias=0 / direct=3 / weightb=1 / open_gop=0 / weightp=2 / keyint=240 / keyint_min=121 / scenecut=40 / intra_refresh=0 / rc_lookahead=40 / rc=2pass / mbtree=1 / bitrate=500 / ratetol=1.0 / qcomp=0.60 / qpmin=0 / qpmax=69 / qpstep=4 / cplxblur=20.0 / qblur=0.5 / ip_ratio=1.40 / aq=1:1.00
mdhd_Duration : 2835462
Audio
ID : 2
Format : AAC
Format/Info : Advanced Audio Codec
Format profile : LC
Codec ID : 40
Duration : 47mn 15s
Bit rate mode : Variable
Bit rate : 128 Kbps
Channel(s) : 2 channels
Channel positions : Front: L R
Sampling rate : 48.0 KHz
Compression mode : Lossy
Stream size : 43.2 MiB (20%)

Релиз от:



   Похожие торренты   Торрент   Размер 
В этой теме нет новых непрочитанных сообщений. Американцы / The Americans [04x01-02 из 13] (2016) WEB-DLRip от Generalfilm | Кубик в Кубе

16 | 2

1021.78 МБ

В этой теме нет новых непрочитанных сообщений. Американцы / The Americans [01x01-06 из 13] (2015) WEB-DLRip | Кубик в Кубе

2 | 4

5.79 ГБ

В этой теме нет новых непрочитанных сообщений. Американцы / The Americans [01x01-06 из 13] (2015) WEB-DLRip | Кубик в Кубе

17 | 22

3.22 ГБ

В этой теме нет новых непрочитанных сообщений. Американцы / The Americans [S01] (2013) WEB-DLRip | Кубик в Кубе

42 | 2

12.34 ГБ

В этой теме нет новых непрочитанных сообщений. Американцы / The Americans [S01] (2013) WEB-DLRip | Кубик в Кубе

69 | 30

6.45 ГБ

В этой теме нет новых непрочитанных сообщений. Американцы / The Americans [S02] (2014) WEB-DLRip от super12308 | Кубик в Кубе

115 | 87

7.98 ГБ

В этой теме нет новых непрочитанных сообщений. Американцы / The Americans [02x01-09] (2014) WEB-DLRip от super12308 | Кубик в Кубе

17 | 23

5.53 ГБ




Вы не можете начинать темы
Вы не можете отвечать на сообщения
Вы не можете редактировать свои сообщения
Вы не можете удалять свои сообщения
Вы не можете добавлять вложения

Перейти:  
Для Мосгорсуда, Роскомнадзора и рекламодателей: mosgorsud-torrent[собачка]yandex.ru
 Вход
ppkBB3cker v.2 © 2008-2014 @ PPK
[ Time : 0.056s | 15 Queries | GZIP : Off ]

cron