img image001 image001 image001 image001 image001 image001 image001 image001 image001 image001 image001 image001 image001 image001 image001

Planets Sun Sun Sun
Статистика раздачи
Автор: Nickolas3434 | Размер: 31.04 ГБ | Добавлен: 30 ноя 2015
Раздают: 37    Качают: 61
Скачать торрент
Скачать торрент
Описание торрента

СообщениеДобавлено: 30 ноя 2015 



Название: Сверхъестественное
Оригинальное название: Supernatural
Год выпуска: 2007
Страна: США
Жанр: ужасы, фэнтези, триллер, драма, детектив
Продолжительность: ~00:39:55
Перевод: Дубляж (Рен-ТВ), MVO (NovaFilm), Оригинальный
Субтитры: русские (Полные)

В ролях: Джаред Падалеки (Sam Winchester), Дженсен Эклс (Dean Winchester), Джим Бивер (Bobby Singer), Миша Коллинз (Castiel), Марк Шеппард (Crowley), Марк Пеллегрино (Lucifer), Женевьев Падалеки (Ruby), Кэти Кэссиди (Ruby), Джеймс Патрик Стюарт (Dick Roman), Саманта Феррис (Ellen Harvelle), Алона Тал (Jo Harvelle), Осрик Чау (Kevin Tran)


Описание:
Сериал рассказывает о приключениях братьев Сэма и Дина Винчестеров, которые путешествуют по Соединённым Штатам на чёрном автомобиле Chevrolet Impala 1967 года, расследуют паранормальные явления, многие из которых основаны на американских городских легендах и фольклоре, и сражаются с порождениями зла, такими как демоны и призраки.


Рейтинг:



Качество: BDRip-AVC 60fps
Формат: MKV
Видео: AVC, 1024x576 (16:9), 5300 kbps, 59,940 fps, 0,150 bpp
Аудио №1: русский / MP3 / 2.0 / 48 kHz / 256 kbps
Аудио №2: русский / AC3 / 5.1 / 48 kHz / 640 kbps / 16 bit
Аудио №3: английский / AC3 / 5.1 / 48 kHz / 640 kbps / 16 bit




1 - Великолепная семерка
2 - С детьми все в порядке
3 - Непруха в Блэк Роке
4 - Город грехов
5 - Сказки на ночь
6 - Алая заря
7 - Свежая кровь
8 - Очень Сверхъестественное Рождество
9 - Охота на Ведьм
10 - Помечтай немного обо мне
11 - Заколдованный круг
12 - На войне как на войне
13 - Укротители духов
14 - Звонок с того света
15 - Время на моей стороне
16 - Пощады не будет

General
Unique ID : 197172182412993233117296405082455758006 (0x9455FB24D7ED0D8B9352B261A2B954B6)
Format : Matroska
Format version : Version 4 / Version 2
File size : 1.91 GiB
Duration : 39mn 55s
Overall bit rate : 6 834 Kbps
Movie name : Tiberiumsun69
Encoded date : UTC 2015-11-29 04:06:21
Writing application : mkvmerge v8.3.0 ('Over the Horizon') 64bit
Writing library : libebml v1.3.1 + libmatroska v1.4.2
Attachment : Yes
Video
ID : 1
Format : AVC
Format/Info : Advanced Video Codec
Format profile : High@L4.1
Format settings, CABAC : Yes
Format settings, ReFrames : 4 frames
Codec ID : V_MPEG4/ISO/AVC
Duration : 39mn 55s
Bit rate : 5 300 Kbps
Width : 1 024 pixels
Height : 576 pixels
Display aspect ratio : 16:9
Frame rate : 59.940 fps
Color space : YUV
Chroma subsampling : 4:2:0
Bit depth : 8 bits
Scan type : Progressive
Bits/(Pixel*Frame) : 0.150
Stream size : 1.44 GiB (76%)
Title : Tiberiumsun69
Writing library : x264 core 146 r2538 121396c
Encoding settings : cabac=1 / ref=3 / deblock=1:0:0 / analyse=0x3:0x113 / me=umh / subme=9 / psy=1 / psy_rd=1.00:0.10 / mixed_ref=1 / me_range=32 / chroma_me=1 / trellis=2 / 8x8dct=1 / cqm=0 / deadzone=21,11 / fast_pskip=0 / chroma_qp_offset=-3 / threads=12 / lookahead_threads=3 / sliced_threads=0 / nr=0 / decimate=1 / interlaced=0 / bluray_compat=0 / constrained_intra=0 / bframes=16 / b_pyramid=2 / b_adapt=2 / b_bias=0 / direct=3 / weightb=1 / open_gop=0 / weightp=2 / keyint=600 / keyint_min=59 / scenecut=40 / intra_refresh=0 / rc_lookahead=40 / rc=2pass / mbtree=0 / bitrate=5300 / ratetol=1.0 / qcomp=0.60 / qpmin=0 / qpmax=69 / qpstep=4 / cplxblur=20.0 / qblur=0.5 / vbv_maxrate=14000 / vbv_bufsize=14000 / nal_hrd=none / filler=0 / ip_ratio=1.40 / pb_ratio=1.30 / aq=1:1.00
Language : English
Default : Yes
Forced : No
Audio #1
ID : 2
Format : MPEG Audio
Format version : Version 1
Format profile : Layer 3
Codec ID : A_MPEG/L3
Codec ID/Hint : MP3
Duration : 39mn 55s
Bit rate mode : Constant
Bit rate : 256 Kbps
Channel(s) : 2 channels
Sampling rate : 48.0 KHz
Compression mode : Lossy
Stream size : 73.1 MiB (4%)
Title : Дубляж
Language : Russian
Default : Yes
Forced : No
Audio #2
ID : 3
Format : AC-3
Format/Info : Audio Coding 3
Mode extension : CM (complete main)
Codec ID : A_AC3
Duration : 39mn 55s
Bit rate mode : Constant
Bit rate : 640 Kbps
Channel(s) : 6 channels
Channel positions : Front: L C R, Side: L R, LFE
Sampling rate : 48.0 KHz
Bit depth : 16 bits
Compression mode : Lossy
Stream size : 183 MiB (9%)
Title : Многоголосый, закадровый NovaFilm
Language : Russian
Default : No
Forced : No
Audio #3
ID : 4
Format : AC-3
Format/Info : Audio Coding 3
Mode extension : CM (complete main)
Codec ID : A_AC3
Duration : 39mn 55s
Bit rate mode : Constant
Bit rate : 640 Kbps
Channel(s) : 6 channels
Channel positions : Front: L C R, Side: L R, LFE
Sampling rate : 48.0 KHz
Bit depth : 16 bits
Compression mode : Lossy
Stream size : 183 MiB (9%)
Title : Оригинал
Language : English
Default : No
Forced : No
Text
ID : 5
Format : UTF-8
Codec ID : S_TEXT/UTF8
Codec ID/Info : UTF-8 Plain Text
Title : Полные
Language : Russian
Default : No
Forced : No


Просьба к переливающим на другие сайты, в оформлении указывайте пожалуйста авторство группы



   Похожие торренты   Торрент   Размер 
В этой теме нет новых непрочитанных сообщений. Сверхъестественное / Supernatural [S04] (2008) BDRip-AVC от R.G. HD-Films | 60 fps

26 | 22

42.27 ГБ

В этой теме нет новых непрочитанных сообщений. Сверхъестественное / Supernatural [S01] (2005) BDRip-AVC от R.G. HD-Films | 60 fps

53 | 34

40.17 ГБ

В этой теме нет новых непрочитанных сообщений. Сверхъестественное / Supernatural [S05] (2009) BDRip-AVC от R.G. HD-Films | 60 fps

34 | 72

41.8 ГБ

В этой теме нет новых непрочитанных сообщений. Сверхъестественное / Supernatural [S02] (2006) BDRip-AVC от R.G. HD-Films | 60 fps

37 | 75

41.4 ГБ

В этой теме нет новых непрочитанных сообщений. Сверхъестественное / Supernatural [S06] (2010-2011) BDRip-AVC от R.G. HD-Films | 60 fps

43 | 45

47.5 ГБ

В этой теме нет новых непрочитанных сообщений. Сверхъестественное / Supernatural [S03] (2007) BDRip от HQ-ViDEO

128 | 53

11.65 ГБ

В этой теме нет новых непрочитанных сообщений. Сверхъестественное / Supernatural [S03] (2007-2008) HDTVRip | NovaFiLM

434 | 72

5.47 ГБ




Вы не можете начинать темы
Вы не можете отвечать на сообщения
Вы не можете редактировать свои сообщения
Вы не можете удалять свои сообщения
Вы не можете добавлять вложения

Перейти:  
Для Мосгорсуда, Роскомнадзора и рекламодателей: mosgorsud-torrent[собачка]yandex.ru
 Вход
ppkBB3cker v.2 © 2008-2014 @ PPK
[ Time : 0.054s | 14 Queries | GZIP : Off ]

Торрент трекер RUTOR.IN, Не можете зайти на rutor.org? Какой новый адрес рутор? Какое зеркало рутор? Не работает rutor.org и зеркала? Тогда наш торрент специально для вас. Rutor.in неофициальное зеркало rutor. В случае если у Вас заблокирован rutor или вдруг Вы не можете на него зайти, то Вы без труда сможете скачать бесплатно и без рекламы последние новинки кино, игр, сериалов и прочего у нас, на Rutor.in. Не нужно использовать прокси, чтобы зайти на рутор, достаточно воспользоваться нашим ресурсом. Все новые фильмы, игры, сериалы, книги и музыка за 2013 и 2014 годы через торрент бесплатно. Скачивайте фильмы в хорошем качестве, игры для пк, xbox, playstation без регистрации. У нас вы найдете новые Зарубежные сериалы и Русские сериалы 2013, 2014, 2015 годов. Оставайтесь с нами, качайте любимые фильмы, игры, сериалы, книги и музыку.