img image001 image001 image001 image001 image001 image001 image001 image001 image001 image001 image001 image001 image001 image001 image001

Planets Sun Sun Sun
Статистика раздачи
Автор: Nickolas3434 | Размер: 719.81 МБ | Добавлен: 30 ноя 2015
Раздают: 121    Качают: 23
Скачать торрент
Скачать торрент
Описание торрента

СообщениеДобавлено: 30 ноя 2015 


Информация о фильме
Название: К югу от ада
Оригинальное название: South of Hell
Год выхода: 2015
Жанр: ужасы, фэнтези, триллер, драма
Режиссер: Элай Рот
В ролях: Закари Бут, Дэна Фоксворф, Билл Ирвин, Дрю Морлейн, Ламман Ракер, Полина Сингер,Мена Сувари, Анна Шрирам,Барри У. Джеральд мл., Катрин Джеральд
О фильме:
Саванна, Джорджия — неуловимый многоликий город, в котором живет сногсшибательная Мария Абаскал, 30-летняя охотница на демонов, зарабатывающая себе этим на жизнь. Мария опытна и бесстрашна в своем преследовании демонов, поселяющихся в людях. Как и те, на кого она охотится, Мария ведет непрекращающуюся борьбу со своим собственным демоном — Абигейл, — которая живет в ней, питаясь злом, которое Мария изгоняет из других. Мария и Абигейл делят на двоих одну душу и судьбу, но поскольку Мария отчаянно пытается одержать верх над Абигейл, ей предстоит узнать, на что способна Абигейл, чтобы остаться ее частью.
Страна: США
Продолжительность: ~00:40:00
Перевод: Любительский (двухголосый, закадровый)
Файл
Качество: HDTVRip
Видео: Xvid, 720x400, ~1200 kbps
Аудио: MP3, 2 ch, 128 kbps
Сэмпл
Формат : AVI
Формат/Информация : Audio Video Interleave
Размер файла : 371 Мбайт
Продолжительность : 39 м.
Общий поток : 1309 Кбит/сек
Программа кодирования : Lavf56.25.101
Видео
Идентификатор : 0
Формат : MPEG-4 Visual
Профиль формата : Simple@L5
Параметр BVOP формата : 1
Параметр QPel формата : Нет
Параметр GMC формата : Без точки перехода
Параметр матрицы формата : Default (MPEG)
Идентификатор кодека : XVID
Идентификатор кодека/Подсказка : XviD
Продолжительность : 39 м.
Битрейт : 1167 Кбит/сек
Ширина : 720 пикселей
Высота : 400 пикселей
Соотношение сторон : 16:9
Частота кадров : 29,970 кадров/сек
Цветовое пространство : YUV
Субдискретизация насыщенности : 4:2:0
Битовая глубина : 8 бит
Тип развёртки : Прогрессивная
Метод сжатия : С потерями
Бит/(Пиксели*Кадры) : 0.135
Размер потока : 331 Мбайт (89%)
Библиотека кодирования : XviD 67
Аудио
Идентификатор : 1
Формат : MPEG Audio
Версия формата : Version 1
Профиль формата : Layer 3
Режим : Joint stereo
Расширение режима : MS Stereo
Идентификатор кодека : 55
Идентификатор кодека/Подсказка : MP3
Продолжительность : 39 м.
Вид битрейта : Постоянный
Битрейт : 128 Кбит/сек
Каналы : 2 канала
Частота : 48,0 КГц
Метод сжатия : С потерями
Размер потока : 36,3 Мбайт (10%)
Выравнивание : Соединение по промежуткам
Продолжительность промежутка : 24 мс. (0,72 видеокадр)

Скриншоты:



   Похожие торренты   Торрент   Размер 
В этой теме нет новых непрочитанных сообщений. К югу от ада / South of Hell [01x01-02 из 08] (2015) HDTVRip от NNM-CLUB | SunshineStudio

49 | 27

1.84 ГБ

В этой теме нет новых непрочитанных сообщений. К югу от ада / South of Hell [01x01-05 из 08] (2015) HDTVRip | SunshineStudio

29 | 21

2.38 ГБ

В этой теме нет новых непрочитанных сообщений. К югу от ада / South of Hell [01x01-02 из 08] (2015) HDTVRip 720p | SunshineStudio

308 | 56

1.05 ГБ

В этой теме нет новых непрочитанных сообщений. К югу от ада / South of Hell [01x01-04 из 08] (2015) HDTVRip 720p | SunshineStudio

6 | 0

2.23 ГБ

В этой теме нет новых непрочитанных сообщений. К югу от ада / South of Hell [01x01-05 из 08] (2015) HDTVRip 720p | SunshineStudio

44 | 19

2.64 ГБ

В этой теме нет новых непрочитанных сообщений. К югу от ада / South of Hell [01x01-06 из 08] (2015) HDTVRip 720p | SunshineStudio

0 | 0

3.17 ГБ

В этой теме нет новых непрочитанных сообщений. К югу от ада / South of Hell [S01] (2015) HDTVRip 720p | SunshineStudio

16 | 9

4.22 ГБ




Вы не можете начинать темы
Вы не можете отвечать на сообщения
Вы не можете редактировать свои сообщения
Вы не можете удалять свои сообщения
Вы не можете добавлять вложения

Перейти:  
Для Мосгорсуда, Роскомнадзора и рекламодателей: mosgorsud-torrent[собачка]yandex.ru
 Вход
ppkBB3cker v.2 © 2008-2014 @ PPK
[ Time : 0.077s | 14 Queries | GZIP : On ]

Торрент трекер RUTOR.IN, Не можете зайти на rutor.org? Какой новый адрес рутор? Какое зеркало рутор? Не работает rutor.org и зеркала? Тогда наш торрент специально для вас. Rutor.in неофициальное зеркало rutor. В случае если у Вас заблокирован rutor или вдруг Вы не можете на него зайти, то Вы без труда сможете скачать бесплатно и без рекламы последние новинки кино, игр, сериалов и прочего у нас, на Rutor.in. Не нужно использовать прокси, чтобы зайти на рутор, достаточно воспользоваться нашим ресурсом. Все новые фильмы, игры, сериалы, книги и музыка за 2013 и 2014 годы через торрент бесплатно. Скачивайте фильмы в хорошем качестве, игры для пк, xbox, playstation без регистрации. У нас вы найдете новые Зарубежные сериалы и Русские сериалы 2013, 2014, 2015 годов. Оставайтесь с нами, качайте любимые фильмы, игры, сериалы, книги и музыку.