img image001 image001 image001 image001 image001 image001 image001 image001 image001 image001 image001 image001 image001 image001 image001

Planets Sun Sun Sun
Статистика раздачи
Автор: Nickolas3434 | Размер: 1.8 ГБ | Добавлен: 01 дек 2015
Раздают: 129    Качают: 5
Скачать торрент
Скачать торрент
Описание торрента

СообщениеДобавлено: 01 дек 2015 

Год выпуска: 2015
Страна: Россия
Студия: Москино
Жанр: драма, экранизация
Продолжительность: 14 серий ~ по 42 мин.
Перевод: не требуется
Субтитры: нет
Оригинальная аудиодорожка: русский
Режиссер: Сергей Урсуляк
В ролях:
Евгений Ткачук, Полина Чернышова, Сергей Маковецкий, Людмила Зайцева, Артур Иванов, Анастасия Веденская, Дарья Урсуляк, Никита Ефремов, Александр Яценко, Надежда Лумпова, Александр Горбатов (II), Виталия Корниенко, Захар Соколов, Пётр Воробьёв, Валерий Жуков, Александр Потапов, Александр Завьялов, Станислав Костецкий, Иван Федотов, Константин Белошапка, Иван Лапин, Тимофей Трибунцев, Иван Орлов, Юлия Сулес, Юлия Полынская, Полина Пушкарук, Ирина Латушко, Нина Андронаки, Лика Нифонтова, Дмитрий Белякин, Наталья Савченко, Константин Желдин, Антон Кузнецов, Сергей Сотников...
Полный список актёров
Описание:
Экранизация одноименного романа Михаила Шолохова.
Фильм охватывает события Первой мировой войны, Октябрьской революции и Гражданской войны. Действие начинается в 1912 году. Герои картины – соседи, станичники, казаки с хутора Татарский станицы Вешенской - живут на этой земле испокон веков, они связаны родством, дружбой, любовью, общим трудом и военной службой.
Но этот прочный и самодостаточный мир со своим неповторимым жизненным укладом, привычками и особой системой взглядов и ценностей рушится под натиском кровавой смуты и революции. Дон разделен ненавистью. Казавшиеся незыблемыми вековые основы донской жизни – земля, хутор, семья, воинский долг растворяются в горниле братоубийственной войны.
Семьи Мелеховых, Коршуновых, Астаховых, вовлечены в круговорот военных и политических событий. «Мне интересна семья – в узком смысле семья Мелеховых, в широком смысле – обитатели хутора Татарского. Мы сняли фильм не про правоту красного или белого движения, а про возможность счастья простых людей. И про то, как это счастье может быть легко и безвозвратно разрушено» - продолжает режиссер.
На фоне эпохальных событий начала ХХ века разворачивается история любви казака Григория Мелехова (Евгений Ткачук) и замужней красавицы Аксиньи Астаховой (Полина Чернышова). Исторический перелом, разрушивший древний уклад донского казачества, совпал с трагическим переломом и в личной жизни Григория.
Неразрешимый моральный выбор – «С кем быть? Кому и чему служить?» - красной нитью проходит через все события картины.
Всю жизнь Григорий сражался за свободу и правду, но не сумел понять, на чьей стороне эта правда и с кем ему по пути: с красными или с белыми.
Не может Мелехов сделать выбор между двумя женщинами: навязанной отцом Пантелеем (Сергей Маковецкий) законной женой Натальей (Дарья Урсуляк), и своей единственной любовью Аксиньей Астаховой, заставить забыть которую оказались не в силах ни долг, ни война, ни революция...





Исходник: DVB
Качество видео: SATRip-AVC
Формат видео: MKV
Видео: 720->786х428 (1,85:1), 25 fps, H264 ~ 1810 kbps avg, 0.196 bit/pixel
Аудио: 48 kHz, Dolby Digital AC3 2.0, 192 kbps
Раздача от:
Общее
Полное имя : Tihiy.Don.2015.SATRip-AVC_[New-team]_by_AVP_Studio\01.mkv
Формат : Matroska
Версия формата : Version 2
Размер файла : 627 Мбайт
Продолжительность : 43 м.
Общий поток : 2004 Кбит/сек
Дата кодирования : UTC 2015-11-29 23:39:13
Программа кодирования : mkvmerge v6.1.0 ('Old Devil') built on Mar 4 2013 09:10:42
Библиотека кодирования : libebml v1.3.0 + libmatroska v1.4.0
Видео
Идентификатор : 1
Формат : AVC
Формат/Информация : Advanced Video Codec
Профиль формата : High@L4.1
Параметр CABAC формата : Да
Параметр ReFrames формата : 10 кадров
Идентификатор кодека : V_MPEG4/ISO/AVC
Продолжительность : 43 м.
Битрейт : 1810 Кбит/сек
Ширина : 720 пикселей
Высота : 428 пикселей
Соотношение сторон : 1,85:1
Соотношение сторон в оригинале : 1,85:1
Режим частоты кадров : Постоянный
Частота кадров : 29,970 кадров/сек
Цветовое пространство : YUV
Субдискретизация насыщенности : 4:2:0
Битовая глубина : 8 бит
Тип развёртки : Прогрессивная
Бит/(Пиксели*Кадры) : 0.196
Размер потока : 554 Мбайт (88%)
Библиотека кодирования : x264 core 148 r2597 e86f3a1
Настройки программы : cabac=1 / ref=10 / deblock=1:-2:-1 / analyse=0x3:0x113 / me=umh / subme=10 / psy=1 / psy_rd=1.00:0.00 / mixed_ref=1 / me_range=32 / chroma_me=1 / trellis=2 / 8x8dct=1 / cqm=0 / deadzone=21,11 / fast_pskip=1 / chroma_qp_offset=-2 / threads=6 / lookahead_threads=1 / sliced_threads=0 / nr=0 / decimate=0 / interlaced=0 / bluray_compat=0 / constrained_intra=0 / bframes=8 / b_pyramid=2 / b_adapt=2 / b_bias=0 / direct=3 / weightb=1 / open_gop=0 / weightp=2 / keyint=250 / keyint_min=25 / scenecut=40 / intra_refresh=0 / rc=2pass / mbtree=0 / bitrate=1810 / ratetol=1.0 / qcomp=0.60 / qpmin=0 / qpmax=69 / qpstep=4 / cplxblur=20.0 / qblur=0.5 / ip_ratio=1.40 / pb_ratio=1.30 / aq=1:1.00
Default : Да
Forced : Нет
Аудио
Идентификатор : 2
Формат : AC-3
Формат/Информация : Audio Coding 3
Расширение режима : CM (complete main)
Параметр Endianness формата : Big
Идентификатор кодека : A_AC3
Продолжительность : 43 м.
Вид битрейта : Постоянный
Битрейт : 192 Кбит/сек
Каналы : 2 канала
Расположение каналов : Front: L R
Частота : 48,0 КГц
Метод сжатия : С потерями
Размер потока : 60,1 Мбайт (10%)
Default : Да
Forced : Нет





   Похожие торренты   Торрент   Размер 
В этой теме нет новых непрочитанных сообщений. Тихий Дон [01-03 из 14] (2015) SATRip-AVC от New-Team

75 | 14

3.57 ГБ

В этой теме нет новых непрочитанных сообщений. Тихий Дон [01-03 из 14] (2015) SATRip-AVC от New-Team

5 | 0

5.37 ГБ

В этой теме нет новых непрочитанных сообщений. Тихий Дон [01-02 из 14] (2015) SATRip

96 | 17

3.54 ГБ

В этой теме нет новых непрочитанных сообщений. Тихий Дон [01-09 из 14] (2015) SATRip

214 | 275

5.29 ГБ

В этой теме нет новых непрочитанных сообщений. Тихий Дон [01-02 из 14] (2015) SATRip

185 | 7

1.82 ГБ

В этой теме нет новых непрочитанных сообщений. Тихий Дон. Съемки на фоне эпохи (2015) SATRip от Generalfilm

88 | 4

558.71 МБ

В этой теме нет новых непрочитанных сообщений. Тихий океан / Тихоокеанский фронт / The Pacific [01-10 из 10] (2010) BDRip 720p от NoLimits-Team

148 | 25

21.83 ГБ




Вы не можете начинать темы
Вы не можете отвечать на сообщения
Вы не можете редактировать свои сообщения
Вы не можете удалять свои сообщения
Вы не можете добавлять вложения

Перейти:  
Для Мосгорсуда, Роскомнадзора и рекламодателей: mosgorsud-torrent[собачка]yandex.ru
 Вход
ppkBB3cker v.2 © 2008-2014 @ PPK
[ Time : 0.036s | 16 Queries | GZIP : On ]

Торрент трекер RUTOR.IN, Не можете зайти на rutor.org? Какой новый адрес рутор? Какое зеркало рутор? Не работает rutor.org и зеркала? Тогда наш торрент специально для вас. Rutor.in неофициальное зеркало rutor. В случае если у Вас заблокирован rutor или вдруг Вы не можете на него зайти, то Вы без труда сможете скачать бесплатно и без рекламы последние новинки кино, игр, сериалов и прочего у нас, на Rutor.in. Не нужно использовать прокси, чтобы зайти на рутор, достаточно воспользоваться нашим ресурсом. Все новые фильмы, игры, сериалы, книги и музыка за 2013 и 2014 годы через торрент бесплатно. Скачивайте фильмы в хорошем качестве, игры для пк, xbox, playstation без регистрации. У нас вы найдете новые Зарубежные сериалы и Русские сериалы 2013, 2014, 2015 годов. Оставайтесь с нами, качайте любимые фильмы, игры, сериалы, книги и музыку.