img image001 image001 image001 image001 image001 image001 image001 image001 image001 image001 image001 image001 image001 image001 image001

Planets Sun Sun Sun
Статистика раздачи
Автор: Nickolas3434 | Размер: 1.63 ГБ | Добавлен: 13 дек 2015
Раздают: 683    Качают: 38
Скачать торрент
Скачать торрент
Описание торрента

СообщениеДобавлено: 13 дек 2015 


Информация о фильме
Оригинальное название: Интерны
Год выхода: 2015
Жанр: Комедия, ситком, медицина
Режиссер: Максим Пежемский, Дина Штурманова
В ролях: Иван Охлобыстин, Илья Глинников, Александр Ильин мл., Вадим Демчог, Светлана Камынина, Юлия Назаренко-Благая, Один Ланд Байрон, Светлана Пермякова, Илья Шидловский, Александр Ляпин, Аглая Тарасова
О фильме:
Жизнь обычной многопрофильной больницы – сплошная рутина. Ненормированный рабочий день, тяжелая, неблагодарная работа, а также инопланетяне, электрики, спивающийся венеролог, озабоченная медсестра, больной-эксгибиционист, ручная крыса, четыре интерна, которые все время расстраивают своего руководителя... Как Иван Охлобыстин в лице доктора Быкова справится со всей этой суетой?

Страна: Россия
Студия: Телеканал ТНТ, "Комеди Клаб Продакшн"
Продолжительность: 15 x ~ 00:26:00
Перевод: Не требуется
Файл
Формат: MP4
Качество: WEB-DLRip | КПК
Видео: MPEG-4 AVC (x264), 640x360, ~500 kbps, 25.000 fps
Аудио: AAC LC, 48.0 KHz, 2 ch, 128 Kbps
Субтитры: Нет
Семпл

Complete name : E:KinoInterny.AVC.KPK.GeneralfilmInterny.S12.2015.AVC.WEB-DLRip.KPK.GeneralfilmInterny.s12e09.2015.AVC.WEB-DLRip.KPK.Generalfilm.mp4
Format : MPEG-4
Codec ID : M4V
File size : 113 MiB
Duration : 24mn 48s
Overall bit rate mode : Variable
Overall bit rate : 634 Kbps
Writing application : Lavf53.19.0
Video
ID : 1
Format : AVC
Format/Info : Advanced Video Codec
Format profile : High@L4.1
Format settings, CABAC : Yes
Format settings, ReFrames : 8 frames
Codec ID : avc1
Codec ID/Info : Advanced Video Coding
Duration : 24mn 48s
Bit rate : 500 Kbps
Width : 640 pixels
Height : 360 pixels
Display aspect ratio : 16:9
Frame rate mode : Constant
Frame rate : 25.000 fps
Color space : YUV
Chroma subsampling : 4:2:0
Bit depth : 8 bits
Scan type : Progressive
Bits/(Pixel*Frame) : 0.087
Stream size : 88.7 MiB (79%)
Writing library : x264 core 130 r2273 b3065e6
Encoding settings : cabac=1 / ref=8 / deblock=1:-2:-2 / analyse=0x3:0x133 / me=umh / subme=10 / psy=1 / psy_rd=1.00:0.00 / mixed_ref=1 / me_range=24 / chroma_me=1 / trellis=2 / 8x8dct=1 / cqm=0 / deadzone=21,11 / fast_pskip=1 / chroma_qp_offset=-2 / threads=12 / lookahead_threads=2 / sliced_threads=0 / nr=0 / decimate=0 / interlaced=0 / bluray_compat=0 / constrained_intra=0 / bframes=8 / b_pyramid=2 / b_adapt=2 / b_bias=0 / direct=3 / weightb=1 / open_gop=0 / weightp=2 / keyint=250 / keyint_min=126 / scenecut=40 / intra_refresh=0 / rc_lookahead=40 / rc=2pass / mbtree=1 / bitrate=500 / ratetol=1.0 / qcomp=0.60 / qpmin=0 / qpmax=69 / qpstep=4 / cplxblur=20.0 / qblur=0.5 / ip_ratio=1.40 / aq=1:1.00
Audio
ID : 2
Format : AAC
Format/Info : Advanced Audio Codec
Format profile : LC
Codec ID : 40
Duration : 24mn 48s
Bit rate mode : Variable
Bit rate : 128 Kbps
Channel(s) : 2 channels
Channel positions : Front: L R
Sampling rate : 48.0 KHz
Compression mode : Lossy
Stream size : 22.7 MiB (20%)

Релиз от:



   Похожие торренты   Торрент   Размер 
В этой теме нет новых непрочитанных сообщений. Интерны [S13] (2015) WEB-DLRip от Generalfilm | КПК

1814 | 179

2.17 ГБ

В этой теме нет новых непрочитанных сообщений. Интерны [S11] (2014) WEB-DLRip от Generalfilm | КПК

475 | 33

2.19 ГБ

В этой теме нет новых непрочитанных сообщений. Интерны [S12] (2015) WEB-DLRip-AVC от ExKinoRay

678 | 70

5.28 ГБ

В этой теме нет новых непрочитанных сообщений. Интерны [S12] (2015) WEB-DLRip от qqss44

444 | 142

4.22 ГБ

В этой теме нет новых непрочитанных сообщений. Интерны [S12] (2015) WEB-DLRip от MediaClub | КПК

125 | 23

1.63 ГБ

В этой теме нет новых непрочитанных сообщений. Интерны [12х01-04 из 20] (2015) WEB-DLRip-AVC от ExKinoRay

8 | 6

1.39 ГБ

В этой теме нет новых непрочитанных сообщений. Интерны [13х01-03 из 20] (2015) WEB-DLRip-AVC от Files-x

57 | 123

1.55 ГБ




Вы не можете начинать темы
Вы не можете отвечать на сообщения
Вы не можете редактировать свои сообщения
Вы не можете удалять свои сообщения
Вы не можете добавлять вложения

Перейти:  
Для Мосгорсуда, Роскомнадзора и рекламодателей: mosgorsud-torrent[собачка]yandex.ru
 Вход
ppkBB3cker v.2 © 2008-2014 @ PPK
[ Time : 0.055s | 14 Queries | GZIP : Off ]

Торрент трекер RUTOR.IN, Не можете зайти на rutor.org? Какой новый адрес рутор? Какое зеркало рутор? Не работает rutor.org и зеркала? Тогда наш торрент специально для вас. Rutor.in неофициальное зеркало rutor. В случае если у Вас заблокирован rutor или вдруг Вы не можете на него зайти, то Вы без труда сможете скачать бесплатно и без рекламы последние новинки кино, игр, сериалов и прочего у нас, на Rutor.in. Не нужно использовать прокси, чтобы зайти на рутор, достаточно воспользоваться нашим ресурсом. Все новые фильмы, игры, сериалы, книги и музыка за 2013 и 2014 годы через торрент бесплатно. Скачивайте фильмы в хорошем качестве, игры для пк, xbox, playstation без регистрации. У нас вы найдете новые Зарубежные сериалы и Русские сериалы 2013, 2014, 2015 годов. Оставайтесь с нами, качайте любимые фильмы, игры, сериалы, книги и музыку.